(Rock Modern / Progressive Rock) [CD] Sonar with David Torn - Vortex - 2018, FLAC (tracks+.cue), lossless

Ответить на тему
Статистика раздачи [Обновить пиров]
Размер:  353 MB   |    Зарегистрирован:  5 месяцев 18 дней   |    Скачан:  0 раз

Полного источника не было: Никогда

 
   
 
 
 
Автор Сообщение

torrentc.info

Создавать темы 30-Апр-2018 22:00

[Цитировать]

Sonar with David Torn / Vortex
Жанр: Rock Modern / Progressive Rock
Носитель: CD
Страна-производитель диска (релиза): UK
Год издания: 2018
Издатель (лейбл): RareNoise Records
Номер по каталогу: RNR087
Страна исполнителя (группы): Switzerland / US
Аудиокодек: FLAC (*.flac)
Тип рипа: tracks+.cue
Битрейт аудио: lossless
Продолжительность: 55:53 min
Источник (релизер): свой рип с CD
Наличие сканов в содержимом раздачи: [600dpi]
Треклист:
1. Part 44. 9:56
2. Red Shift. 10:31
3. Waves and Particles. 7:49
4. Monolith. 10:47
5. Vortex. 9:37
6. Lookface! 7:13

Лог создания рипа

Exact Audio Copy V1.0 beta 4 from 7. December 2014
EAC extraction logfile from 23. April 2018, 22:39
Sonar with David Torn / Vortex
Used drive : ATAPI iHAS124 E Adapter: 1 ID: 0
Read mode : SecureUtilize accurate stream : YesDefeat audio cache : YesMake use of C2 pointers : No
Read offset correction : 6Overread into Lead-In and Lead-Out : NoFill up missing offset samples with silence : YesDelete leading and trailing silent blocks : NoNull samples used in CRC calculations : YesUsed interface : Native Win32 interface for Win NT & 2000Gap handling : Appended to previous track
Used output format : User Defined EncoderSelected bitrate : 896 kBit/sQuality : HighAdd ID3 tag : NoCommand line compressor : C:\Program Files\flac-1.3.2-win\win32\flac.exeAdditional command line options : -8 -V -T "ARTIST=%artist%" -T "TITLE=%title%" -T "ALBUM=%albumtitle%" -T "DATE=%year%" -T "TRACKNUMBER=%tracknr%" -T "GENRE=%genre%" -T "COMMENT=ripped by vp_sunset" %source% -o %dest%
TOC of the extracted CD
Track | Start | Length | Start sector | End sector --------------------------------------------------------- 1 | 0:00.00 | 10:00.29 | 0 | 45028 2 | 10:00.29 | 10:36.48 | 45029 | 92776 3 | 20:37.02 | 7:53.40 | 92777 | 128291 4 | 28:30.42 | 10:53.17 | 128292 | 177283 5 | 39:23.59 | 9:37.14 | 177284 | 220572 6 | 49:00.73 | 7:13.32 | 220573 | 253079
Track 1
Filename C:\_EAC\01. Part 44.wav
Pre-gap length 0:00:02.00
Peak level 96.6 % Extraction speed 1.2 X Track quality 100.0 % Test CRC BE465560 Copy CRC BE465560 Track not present in AccurateRip database Copy OK
Track 2
Filename C:\_EAC\02. Red Shift.wav
Pre-gap length 0:00:03.77
Peak level 96.6 % Extraction speed 1.4 X Track quality 100.0 % Test CRC 66131482 Copy CRC 66131482 Track not present in AccurateRip database Copy OK
Track 3
Filename C:\_EAC\03. Waves and Particles.wav
Pre-gap length 0:00:04.69
Peak level 96.6 % Extraction speed 1.7 X Track quality 100.0 % Test CRC 1EE9AA71 Copy CRC 1EE9AA71 Track not present in AccurateRip database Copy OK
Track 4
Filename C:\_EAC\04. Monolith.wav
Pre-gap length 0:00:04.28
Peak level 96.6 % Extraction speed 1.9 X Track quality 100.0 % Test CRC A06E8F07 Copy CRC A06E8F07 Track not present in AccurateRip database Copy OK
Track 5
Filename C:\_EAC\05. Vortex.wav
Pre-gap length 0:00:05.32
Peak level 96.6 % Extraction speed 2.1 X Track quality 100.0 % Test CRC BBD047DC Copy CRC BBD047DC Track not present in AccurateRip database Copy OK
Track 6
Filename C:\_EAC\06. Lookface!.wav
Peak level 96.6 % Extraction speed 2.1 X Track quality 100.0 % Test CRC BE72DD7A Copy CRC BE72DD7A Track not present in AccurateRip database Copy OK
None of the tracks are present in the AccurateRip database
No errors occurred
End of status report
---- CUETools DB Plugin V2.1.4
[CTDB TOCID: I3gK5zIe_mNrTBykJA8mFVAZuyQ-] foundSubmit result: I3gK5zIe_mNrTBykJA8mFVAZuyQ- has been confirmedTrack | CTDB Status 1 | (3/3) Accurately ripped 2 | (3/3) Accurately ripped 3 | (3/3) Accurately ripped 4 | (3/3) Accurately ripped 5 | (3/3) Accurately ripped 6 | (3/3) Accurately ripped
==== Log checksum A0C24F1ACDCA5AEE1C426C3BB99B877615B89763DBE8A3CD845CEF81415E34CD ====

Содержание индексной карты (.CUE)

REM GENRE "Rock Modern / Eclectic Prog"REM DATE 2018REM DISCID 450D2E06REM COMMENT "ExactAudioCopy v1.0b4"PERFORMER "Sonar with David Torn"TITLE "Vortex"FILE "01. Part 44.wav" WAVE TRACK 01 AUDIO TITLE "Part 44" PERFORMER "Sonar with David Torn" INDEX 01 00:00:00 TRACK 02 AUDIO TITLE "Red Shift" PERFORMER "Sonar with David Torn" INDEX 00 09:56:46FILE "02. Red Shift.wav" WAVE INDEX 01 00:00:00 TRACK 03 AUDIO TITLE "Waves and Particles" PERFORMER "Sonar with David Torn" INDEX 00 10:31:71FILE "03. Waves and Particles.wav" WAVE INDEX 01 00:00:00 TRACK 04 AUDIO TITLE "Monolith" PERFORMER "Sonar with David Torn" INDEX 00 07:49:19FILE "04. Monolith.wav" WAVE INDEX 01 00:00:00 TRACK 05 AUDIO TITLE "Vortex" PERFORMER "Sonar with David Torn" INDEX 00 10:47:68FILE "05. Vortex.wav" WAVE INDEX 01 00:00:00FILE "06. Lookface!.wav" WAVE TRACK 06 AUDIO TITLE "Lookface!" PERFORMER "Sonar with David Torn" INDEX 01 00:00:00

Лог проверки качества

-----------------------
DON'T MODIFY THIS FILE
-----------------------
PERFORMER: auCDtect Task Manager, ver. 1.6.0 RC1 build 1.6.0.1Copyright (c) 2008-2010 y-soft. All rights reservedhttp://y-soft.org
ANALYZER: auCDtect: CD records authenticity detector, version 0.8.2Copyright (c) 2004 Oleg Berngardt. All rights reserved.Copyright (c) 2004 Alexander Djourik. All rights reserved.
FILE: 01. Part 44.flac Size: 62317269 Hash: CF258362A8EFC0018CF44AB9AD5B4F0A Accuracy: -m0 Conclusion: CDDA 100% Signature: 46C3A4AD1DB47F76F0F3E77F003929266FC50C60FILE: 02. Red Shift.flac Size: 63589865 Hash: B6275FF892ADAB61B8A762D84CEDF16B Accuracy: -m0 Conclusion: CDDA 100% Signature: 7DA77D05D97CBCB478C1A4F61947DE4BC640876EFILE: 03. Waves and Particles.flac Size: 40513266 Hash: C517E56C4DA561DB31C1CD449459E8C2 Accuracy: -m0 Conclusion: CDDA 100% Signature: 2CC5DD4979F120C5F6933FCD7FA4F7572A426270FILE: 04. Monolith.flac Size: 54773419 Hash: 16596BFF51811DCED34178AC13561E14 Accuracy: -m0 Conclusion: CDDA 100% Signature: 07CAAF4338DD314D513EB4DAEEA1160C46265BE4FILE: 05. Vortex.flac Size: 53985592 Hash: 11A2AD5126D199962E54CB73F2F34E9C Accuracy: -m0 Conclusion: CDDA 100% Signature: B170CB9CB922312090CB25D90A91FF17CF5FEDABFILE: 06. Lookface!.flac Size: 39742343 Hash: DC753982A9830026E25BC9EAE2F202B8 Accuracy: -m0 Conclusion: CDDA 100% Signature: 50C56FEA7B49C193394912C217F697D37A875256

Состав

- Stephan Thelen / tritone guitar
- Bernhard Wagner / tritone guitar
- Christian Kuntner / electric bass
- Manuel Pasquinelli / drums
With:
- David Torn / electric guitar, live-looping & manipulation


[torrentc.info]_t_5553783.torrent
Торрент: Зарегистрирован ·  [ 2018-04-30 21:58 ] ·  20acfc65e0a844cc0a2b5e4a1f45e98279250388

15 KB

Статус: проверено
Скачан: 0 раз
Размер: 353 MB
Оценка: 
(Голосов: 0)
Сказали спасибо: 0  Спасибо
Похожие темы
[Профиль]    [ЛС]
Показать сообщения:    
Ответить на тему

Текущее время: Сегодня 23:00

Часовой пояс: GMT + 7



Вы не можете начинать темы
Вы не можете отвечать на сообщения
Вы не можете редактировать свои сообщения
Вы не можете удалять свои сообщения
Вы не можете голосовать в опросах
Вы не можете прикреплять файлы к сообщениям
Вы можете скачивать файлы