(Experimental / Avant-Prog / Post-Rock) [WEB] Aquaserge - Deja Vous? [Live] - 2018, FLAC (tracks), lossless

Ответить на тему
Статистика раздачи [Обновить пиров]
Размер:  282 MB   |    Зарегистрирован:  5 месяцев 17 дней   |    Скачан:  0 раз

Полного источника не было: Никогда

 
   
 
 
 
Автор Сообщение

torrentc.info

Создавать темы 30-Апр-2018 22:00

[Цитировать]

Aquaserge / Deja Vous? [Live]
Жанр: Experimental / Avant-Prog / Post-Rock
Носитель: WEB
Год издания: 2018
Издатель (лейбл): Web Release
Страна исполнителя (группы): France
Аудиокодек: FLAC (*.flac)
Тип рипа: tracks
Битрейт аудио: lossless
Продолжительность: 45:23 min
Источник (релизер): bandcamp.com
Наличие сканов в содержимом раздачи:
Треклист:
1. Virage Sud. 9:56
2. L'ire est au rendez-vous. 6:39
3. My Funny Valentine. 5:30
4. La ligue anti jazz-rock (intro). 3:00
5. C'est pas tout mais. 4:22
6. Travelling. 8:59
7. Tintin on est bien mon loulou (extrait). 2:28
8. Je viens. 4:24

DRM.log

foobar2000 1.3.8 / Dynamic Range Meter 1.1.1log date: 2018-04-28 01:41:00
--------------------------------------------------------------------------------Analyzed: Aquaserge / Déjà Vous ? (Live)--------------------------------------------------------------------------------
DR Peak RMS Duration Track--------------------------------------------------------------------------------DR6 -0.26 dB -8.41 dB 9:56 01-Virage Sud (Live)DR6 -0.27 dB -7.72 dB 6:40 02-L'ire Est Au Rendez-Vous (Live)DR6 -0.30 dB -8.44 dB 5:31 03-My Funny Valentine (Live)DR10 -0.31 dB -13.12 dB 3:01 04-La Ligue Anti Jazz-Rock (Intro) [Live]DR6 -0.29 dB -8.75 dB 4:22 05-C'est Pas Tout Mais (Live)DR6 -0.30 dB -8.97 dB 8:59 06-Travelling (Live)DR5 -0.17 dB -6.61 dB 2:29 07-Tintin on Est Bien Mon Loulou (Extrait) [Live]DR8 -0.31 dB -11.97 dB 4:25 08-Je Viens (Live)--------------------------------------------------------------------------------
Number of tracks: 8Official DR value: DR7
Samplerate: 44100 HzChannels: 2Bits per sample: 16Bitrate: 757 kbpsCodec: FLAC================================================================================

Лог проверки качества

-----------------------
DON'T MODIFY THIS FILE
-----------------------
PERFORMER: auCDtect Task Manager, ver. 1.6.0 RC1 build 1.6.0.1Copyright (c) 2008-2010 y-soft. All rights reservedhttp://y-soft.org
ANALYZER: auCDtect: CD records authenticity detector, version 0.8.2Copyright (c) 2004 Oleg Berngardt. All rights reserved.Copyright (c) 2004 Alexander Djourik. All rights reserved.
FILE: 01 - Virage Sud.flac Size: 68512334 Hash: 104A70834726A9943116E63353E3D49E Accuracy: -m0 Conclusion: CDDA 100% Signature: F9883F4FC99FC6E48A8AB12ECB1C1FA8E3B5D108FILE: 02 - L'ire Est Au Rendez-Vous.flac Size: 46457019 Hash: 8B95DDFDAEC46DD7786C9ABD3A5CC75C Accuracy: -m0 Conclusion: CDDA 100% Signature: B68DC42F40928B85421817F1FFF797F1E369CAE1FILE: 03 - My Funny Valentine.flac Size: 33962198 Hash: 190C1128DD7D4EC9CC0A4D0FC6E5145C Accuracy: -m0 Conclusion: CDDA 100% Signature: F244F2185F7176C8C1FB8745F8836F8F660E4EE9FILE: 04 - La Ligue Anti Jazz-Rock (Intro).flac Size: 17918058 Hash: 0EA3942BE28FB5310BE1328CCFAB07D9 Accuracy: -m0 Conclusion: CDDA 100% Signature: 0242389A6B8F206560CD99559E463497AF35EEA2FILE: 05 - C'est Pas Tout Mais.flac Size: 28689928 Hash: 11FF25352AE131353AE0892A6DD43290 Accuracy: -m0 Conclusion: CDDA 100% Signature: D46F0F544F2D85D065CD9337F8931D7B382FB029FILE: 06 - Travelling.flac Size: 55965057 Hash: 451C8F6B100043FD0754BDB539FE1576 Accuracy: -m0 Conclusion: CDDA 100% Signature: CE5C29D33CD69C7C764D83C20B509B1955438ED5FILE: 07 - Tintin on Est Bien Mon Loulou (Extrait).flac Size: 17360880 Hash: DD930D0580D9E8FA807A751B8BFDA6CE Accuracy: -m0 Conclusion: CDDA 100% Signature: 9546FB9A61A3F2707D72CAA55A047C8F0CA25DD8FILE: 08 - Je Viens.flac Size: 25218107 Hash: 56117E94799A9690D716974D781409A8 Accuracy: -m0 Conclusion: CDDA 100% Signature: 9D276385A8879FB7F92CCE3B0BF042C7C33DECFC

Об альбоме (сборнике)

released April 27, 2018


[torrentc.info]_t_5554337.torrent
Торрент: Зарегистрирован ·  [ 2018-04-30 21:58 ] ·  3b05d50bc55f0a56ad86bcc260e7d5c6674c8e30

12 KB

Статус: проверено
Скачан: 0 раз
Размер: 282 MB
Оценка: 
(Голосов: 0)
Сказали спасибо: 0  Спасибо
Похожие темы
[Профиль]    [ЛС]
Показать сообщения:    
Ответить на тему

Текущее время: Сегодня 18:38

Часовой пояс: GMT + 7



Вы не можете начинать темы
Вы не можете отвечать на сообщения
Вы не можете редактировать свои сообщения
Вы не можете удалять свои сообщения
Вы не можете голосовать в опросах
Вы не можете прикреплять файлы к сообщениям
Вы можете скачивать файлы