[iPhone] Драконий Жемчуг Зет: Фильм пятый / Dragon Ball Z Movie 5: Cooler\'s Revenge (Хасимото Мицуо / Hashimoto Mitsuo) [1991, приключения, комедия, фэнтези, сёнэн, DVDRip, 480x368]

Ответить на тему
Статистика раздачи [Обновить пиров]
Размер:  464 MB   |    Зарегистрирован:  5 месяцев 22 дня   |    Скачан:  0 раз

Полного источника не было: Никогда

 
   
 
 
 
Автор Сообщение

torrentc.info

Создавать темы 30-Апр-2018 21:59

[Цитировать]

Драконий Жемчуг Зет: Фильм пятый-
Оригинальное название: ドラゴンボールZ とびっきりの最強対最強
Английское название: Dragon Ball Z Movie 5: Cooler's Revenge-Год выхода:
1991
Страна: Япония
Жанр:приключения, комедия, фэнтези, сёнэн
Продолжительность: 00:46:54-Перевод : Любительский Одноголосый
Субтитры: -Дата выхода: 20.07.1991-Режиссёр: Хасимото Мицуо
Студия: -Описание: Кулер – старший брат Фризы – узнал, что его малого замочил какой-то сайан. Из-за этой семейной драмы, Кулер отправляется на Землю, чтобы, понятно, убить Сон Гоку. Впрочем, он просто уничтожить всех оставшихся сайанов, так как тоже их боится.
Гоку вбили снаряд прямо в спину, чем вывели из игры. Крилин спрятал его в какой-то пещере. Гохан, верхом на драконе, помчался к Башне за бобами. По пути он натыкается, конечно, на бойцов Кулера. В очередной раз из глубокой задницы Гохана вытягивает наш добрый Пикколо. Слуги зверя повержены, Гохана и Крилина спасти, кстати, не удалось, а зверь тут как тут. Вот и время героя! Гоку в бою. После трансформации Кулера, у него начались проблемы, и в ярости Гоку становится Супер Сайаном. Кулер атакует, но и Гоку не прост – и Кулера снесло в Солнце.
- || || || -Качество: DVDRip
Формат файла: *.m4v
Видео кодек: H.264
Аудио кодек: ААС
Разрешение: 480х368
Другие параметры видео: 896 Кбит/сек, 4:3, 23,976 кадр/сек
Аудио : 160 Кбит/сек, 2 канала(ов), 48,0 КГц
Аудио : 160 Кбит/сек, 2 канала(ов), 48,0 КГц
Аудио : 154 Кбит/сек, 2 канала(ов), 48,0 КГц
Вшитая обложка: есть
Доп. теги (режиссёр, актёры и т.д.): есть
Телешоу/видеоклип : не требуется
Главы: нет
Серия/сезон:не требуется

MediaInfo

Format                                   : MPEG-4
Format profile                           : Base Media / Version 2
Codec ID                                 : mp42
File size                                : 464 MiB
Duration                                 : 46mn 57s
Overall bit rate mode                    : Variable
Overall bit rate                         : 1 382 Kbps
Movie name                               : Dragon Ball Z Movie 05 Cooler's Revenge Feature
Genre                                    : Adventure
Recorded date                            : 1991
Encoded date                             : UTC 2012-06-05 01:56:41
Tagged date                              : UTC 2012-07-16 05:02:03
Writing application                      : HandBrake 0.9.6 2012022800
Cover                                    : Yes
iTunMOVI                                 :  /  /  /  /  directors /   /    /    name /    Хасимото Мицуо /    /   /  /
desc                                     : Кулер – старший брат Фризы – узнал, что его малого замочил какой-то сайан. Из-за этой семейной драмы, Кулер отправляется на Землю, чтобы, понятно, убить Сон Гоку. Впрочем, он просто уничтожить всех оставшихся сайанов, так как тоже их боится.
ldes                                     : Гоку вбили снаряд прямо в спину, чем вывели из игры. Крилин спрятал его в какой-то пещере. Гохан, верхом на драконе, помчался к Башне за бобами. По пути он натыкается, конечно, на бойцов Кулера. В очередной раз из глубокой задницы Гохана вытягивает наш добрый Пикколо. Слуги зверя повержены, Гохана и Крилина спасти, кстати, не удалось, а зверь тут как тут. Вот и время героя! Гоку в бою. После трансформации Кулера, у него начались проблемы, и в ярости Гоку становится Супер Сайаном. Кулер атакует, но и Гоку не прост – и Кулера снесло в Солнце.
stik                                     : 9
Video
ID                                       : 1
Format                                   : AVC
Format/Info                              : Advanced Video Codec
Format profile                           : Baseline@L3.0
Format settings, CABAC                   : No
Format settings, ReFrames                : 4 frames
Codec ID                                 : avc1
Codec ID/Info                            : Advanced Video Coding
Duration                                 : 46mn 57s
Bit rate mode                            : Variable
Bit rate                                 : 896 Kbps
Width                                    : 480 pixels
Height                                   : 368 pixels
Display aspect ratio                     : 4:3
Frame rate mode                          : Constant
Frame rate                               : 29.970 fps
Color space                              : YUV
Chroma subsampling                       : 4:2:0
Bit depth                                : 8 bits
Scan type                                : Progressive
Bits/(Pixel*Frame)                       : 0.169
Stream size                              : 301 MiB (65%)
Writing library                          : x264 core 120
Encoding settings                        : cabac=0 / ref=4 / deblock=1:0:0 / analyse=0x1:0x131 / me=umh / subme=6 / psy=1 / psy_rd=0.00:0.00 / mixed_ref=1 / me_range=16 / chroma_me=1 / trellis=0 / 8x8dct=0 / cqm=0 / deadzone=21,11 / fast_pskip=0 / chroma_qp_offset=0 / threads=6 / sliced_threads=0 / nr=0 / decimate=1 / interlaced=0 / bluray_compat=0 / constrained_intra=0 / bframes=0 / weightp=0 / keyint=300 / keyint_min=30 / scenecut=40 / intra_refresh=0 / rc_lookahead=40 / rc=2pass / mbtree=1 / bitrate=896 / ratetol=1.0 / qcomp=0.60 / qpmin=3 / qpmax=69 / qpstep=4 / cplxblur=20.0 / qblur=0.5 / vbv_maxrate=1500 / vbv_bufsize=2000 / nal_hrd=none / ip_ratio=1.40 / aq=1:1.00
Encoded date                             : UTC 2012-06-05 01:56:42
Tagged date                              : UTC 2012-06-05 02:06:08
Color primaries                          : BT.601-6 525, BT.1358 525, BT.1700 NTSC, SMPTE 170M
Transfer characteristics                 : BT.709-5, BT.1361
Matrix coefficients                      : BT.601-6 525, BT.1358 525, BT.1700 NTSC, SMPTE 170M
Audio #1
ID                                       : 2
Format                                   : AAC
Format/Info                              : Advanced Audio Codec
Format profile                           : LC
Codec ID                                 : 40
Duration                                 : 46mn 56s
Bit rate mode                            : Variable
Bit rate                                 : 160 Kbps
Maximum bit rate                         : 250 Kbps
Channel(s)                               : 2 channels
Channel positions                        : Front: L R
Sampling rate                            : 48.0 KHz
Compression mode                         : Lossy
Stream size                              : 53.7 MiB (12%)
Language                                 : Russian
Encoded date                             : UTC 2012-06-05 01:56:42
Tagged date                              : UTC 2012-06-05 02:06:07
Audio #2
ID                                       : 3
Format                                   : AAC
Format/Info                              : Advanced Audio Codec
Format profile                           : LC
Codec ID                                 : 40
Duration                                 : 46mn 56s
Bit rate mode                            : Variable
Bit rate                                 : 160 Kbps
Maximum bit rate                         : 194 Kbps
Channel(s)                               : 2 channels
Channel positions                        : Front: L R
Sampling rate                            : 48.0 KHz
Compression mode                         : Lossy
Stream size                              : 53.7 MiB (12%)
Language                                 : Japanese
Encoded date                             : UTC 2012-06-05 01:56:42
Tagged date                              : UTC 2012-06-05 02:06:07
Audio #3
ID                                       : 4
Format                                   : AAC
Format/Info                              : Advanced Audio Codec
Format profile                           : LC
Codec ID                                 : 40
Duration                                 : 46mn 56s
Bit rate mode                            : Variable
Bit rate                                 : 154 Kbps
Maximum bit rate                         : 392 Kbps
Channel(s)                               : 2 channels
Channel positions                        : Front: L R
Sampling rate                            : 48.0 KHz
Compression mode                         : Lossy
Stream size                              : 51.7 MiB (11%)
Language                                 : English
Encoded date                             : UTC 2012-06-05 01:56:42
Tagged date                              : UTC 2012-06-05 02:06:07
Text #1
ID                                       : 5
Format                                   : mp4s
Codec ID                                 : E0
Duration                                 : 45mn 15s
Bit rate mode                            : Variable
Bit rate                                 : 2 687 bps
Maximum bit rate                         : 4 162 Mbps
Stream size                              : 891 KiB (0%)
Language                                 : Russian
Encoded date                             : UTC 2012-06-05 01:56:42
Tagged date                              : UTC 2012-06-05 02:05:59
Text #2
ID                                       : 6
Format                                   : mp4s
Codec ID                                 : E0
Duration                                 : 45mn 6s
Bit rate mode                            : Variable
Bit rate                                 : 3 841 bps
Maximum bit rate                         : 4 260 Mbps
Stream size                              : 1.24 MiB (0%)
Language                                 : English
Encoded date                             : UTC 2012-06-05 01:56:42
Tagged date                              : UTC 2012-06-05 02:05:56

Скриншоты

- Группы:


[torrentc.info]_t_4126909.torrent
Торрент: Зарегистрирован ·  [ 2018-04-30 21:58 ] ·  d0437165439da36b0f42078918cefede34c76c18

1 KB

Статус: проверено
Скачан: 0 раз
Размер: 464 MB
Оценка: 
(Голосов: 0)
Сказали спасибо: 0  Спасибо
Похожие темы
[Профиль]    [ЛС]
Показать сообщения:    
Ответить на тему

Текущее время: Сегодня 06:56

Часовой пояс: GMT + 7



Вы не можете начинать темы
Вы не можете отвечать на сообщения
Вы не можете редактировать свои сообщения
Вы не можете удалять свои сообщения
Вы не можете голосовать в опросах
Вы не можете прикреплять файлы к сообщениям
Вы можете скачивать файлы