(Pop, Cabaret, Jazz) [CD] Ute Lemper - Between Yesterday And Tomorrow - 2009, FLAC (tracks+.cue), lossless

Ответить на тему
Статистика раздачи [Обновить пиров]
Размер:  365 MB   |    Зарегистрирован:  7 месяцев 12 дней   |    Скачан:  0 раз

Полного источника не было: Никогда

 
   
 
 
 
Автор Сообщение

torrentc.info

Создавать темы 28-Апр-2018 22:50

[Цитировать]

Ute Lemper / Between Yesterday And Tomorrow
Жанр: Pop, Cabaret, Jazz
Носитель: CD
Год издания: 2008
Издатель (лейбл): Chameleon Records
Страна исполнителя (группы): Германия
Аудиокодек: FLAC (*.flac)
Тип рипа: tracks+.cue
Битрейт аудио: lossless
Продолжительность: 00:58:03
Источник (релизер): LiplessOnion
Наличие сканов в содержимом раздачи: нет
Треклист:
01. The Greatest Ride [04:04]
02. Stranger Friend [04:49]
03. Blood and Feathers [05:47]
04. Luna [03:53]
05. Ghosts of Berlin [07:12]
06. La Mémoire et la Mer [05:23]
07. Wings of Desire [04:14]
08. Nomad [06:45]
09. Here Is Love [05:32]
10. Nevada [04:53]
11. September Mourn [05:31]-

Лог создания рипа (.log)

X Lossless Decoder version 20120609 (141.0)
XLD extraction logfile from 2012-06-18 20:02:34 -0500
Ute Lemper / Between Yesterday and Tomorrow
Used drive : MATSHITA DVD-R UJ-857D (revision KBVB)
Ripper mode : XLD Secure RipperDisable audio cache : OK for the drive with a cache less than 1375KiBMake use of C2 pointers : NORead offset correction : 102Max retry count : 100Gap status : Analyzed, Appended
TOC of the extracted CD Track | Start | Length | Start sector | End sector --------------------------------------------------------- 1 | 00:00:00 | 04:04:23 | 0 | 18322 2 | 04:04:23 | 04:49:74 | 18323 | 40071 3 | 08:54:22 | 05:47:13 | 40072 | 66109 4 | 14:41:35 | 03:53:02 | 66110 | 83586 5 | 18:34:37 | 07:12:37 | 83587 | 116023 6 | 25:46:74 | 05:23:47 | 116024 | 140295 7 | 31:10:46 | 04:14:33 | 140296 | 159378 8 | 35:25:04 | 06:45:40 | 159379 | 189793 9 | 42:10:44 | 05:32:35 | 189794 | 214728 10 | 47:43:04 | 04:53:35 | 214729 | 236738 11 | 52:36:39 | 05:31:05 | 236739 | 261568
AccurateRip Summary (DiscID: 00174b5e-00cc541f-9a0d9f0b) Track 01 : Not Found Track 02 : Not Found Track 03 : Not Found Track 04 : Not Found Track 05 : Not Found Track 06 : Not Found Track 07 : Not Found Track 08 : Not Found Track 09 : Not Found Track 10 : Not Found Track 11 : Not Found ->0 track accurately ripped, 11 tracks not found
All Tracks Album gain : -8.92 dB Peak : 1.000000 Statistics Read error : 0 Jitter error (maybe fixed) : 0 Retry sector count : 0 Damaged sector count : 0
Track 01 Filename : /Volumes/External HDD/Torrenst (Created)/Ute Lempter - Between Yesterday and Tomorrow (2009) FLAC/01 - The Greatest Ride.flac Pre-gap length : 00:02:00
Track gain : -9.48 dB Peak : 1.000000 CRC32 hash (test run) : 8F8A646A CRC32 hash : 8F8A646A CRC32 hash (skip zero) : 94D38D75 AccurateRip v1 signature : 3BC3CD34 AccurateRip v2 signature : 1E3CD1C0 ->Track not present in AccurateRip database. Statistics Read error : 0 Jitter error (maybe fixed) : 0 Retry sector count : 0 Damaged sector count : 0
Track 02 Filename : /Volumes/External HDD/Torrenst (Created)/Ute Lempter - Between Yesterday and Tomorrow (2009) FLAC/02 - Stranger Friend.flac
Track gain : -9.03 dB Peak : 1.000000 CRC32 hash (test run) : 1E75798A CRC32 hash : 1E75798A CRC32 hash (skip zero) : 1BFD64F1 AccurateRip v1 signature : 3F05A006 AccurateRip v2 signature : 6D32AC7C ->Track not present in AccurateRip database. Statistics Read error : 0 Jitter error (maybe fixed) : 0 Retry sector count : 0 Damaged sector count : 0
Track 03 Filename : /Volumes/External HDD/Torrenst (Created)/Ute Lempter - Between Yesterday and Tomorrow (2009) FLAC/03 - Blood and Feathers.flac
Track gain : -9.28 dB Peak : 1.000000 CRC32 hash (test run) : 47ABECB6 CRC32 hash : 47ABECB6 CRC32 hash (skip zero) : F3DB17C4 AccurateRip v1 signature : FD091AAD AccurateRip v2 signature : 38E714A9 ->Track not present in AccurateRip database. Statistics Read error : 0 Jitter error (maybe fixed) : 0 Retry sector count : 0 Damaged sector count : 0
Track 04 Filename : /Volumes/External HDD/Torrenst (Created)/Ute Lempter - Between Yesterday and Tomorrow (2009) FLAC/04 - Luna.flac
Track gain : -10.07 dB Peak : 1.000000 CRC32 hash (test run) : 42097D40 CRC32 hash : 42097D40 CRC32 hash (skip zero) : D4FC77A7 AccurateRip v1 signature : D3112672 AccurateRip v2 signature : 88EF0B5E ->Track not present in AccurateRip database. Statistics Read error : 0 Jitter error (maybe fixed) : 0 Retry sector count : 0 Damaged sector count : 0
Track 05 Filename : /Volumes/External HDD/Torrenst (Created)/Ute Lempter - Between Yesterday and Tomorrow (2009) FLAC/05 - Ghosts of Berlin.flac Pre-gap length : 00:00:20
Track gain : -8.48 dB Peak : 1.000000 CRC32 hash (test run) : F5F3B642 CRC32 hash : F5F3B642 CRC32 hash (skip zero) : C0F36355 AccurateRip v1 signature : CAC5BA77 AccurateRip v2 signature : 55B649E9 ->Track not present in AccurateRip database. Statistics Read error : 0 Jitter error (maybe fixed) : 0 Retry sector count : 0 Damaged sector count : 0
Track 06 Filename : /Volumes/External HDD/Torrenst (Created)/Ute Lempter - Between Yesterday and Tomorrow (2009) FLAC/06 - La MГ©moire et la Mer.flac Pre-gap length : 00:01:07
Track gain : -8.52 dB Peak : 1.000000 CRC32 hash (test run) : 3D98E999 CRC32 hash : 3D98E999 CRC32 hash (skip zero) : 51F47C10 AccurateRip v1 signature : 23D0BC94 AccurateRip v2 signature : 75B78E14 ->Track not present in AccurateRip database. Statistics Read error : 0 Jitter error (maybe fixed) : 0 Retry sector count : 0 Damaged sector count : 0
Track 07 Filename : /Volumes/External HDD/Torrenst (Created)/Ute Lempter - Between Yesterday and Tomorrow (2009) FLAC/07 - Wings of Desire.flac
Track gain : -8.99 dB Peak : 1.000000 CRC32 hash (test run) : 13FB8E2E CRC32 hash : 13FB8E2E CRC32 hash (skip zero) : 32D771A6 AccurateRip v1 signature : A8404BC6 AccurateRip v2 signature : 849CC281 ->Track not present in AccurateRip database. Statistics Read error : 0 Jitter error (maybe fixed) : 0 Retry sector count : 0 Damaged sector count : 0
Track 08 Filename : /Volumes/External HDD/Torrenst (Created)/Ute Lempter - Between Yesterday and Tomorrow (2009) FLAC/08 - Nomad.flac
Track gain : -8.01 dB Peak : 1.000000 CRC32 hash (test run) : 66C195F5 CRC32 hash : 66C195F5 CRC32 hash (skip zero) : CF3E99A7 AccurateRip v1 signature : 187054F2 AccurateRip v2 signature : 392D8EEA ->Track not present in AccurateRip database. Statistics Read error : 0 Jitter error (maybe fixed) : 0 Retry sector count : 0 Damaged sector count : 0
Track 09 Filename : /Volumes/External HDD/Torrenst (Created)/Ute Lempter - Between Yesterday and Tomorrow (2009) FLAC/09 - Here Is Love.flac
Track gain : -5.86 dB Peak : 0.999146 CRC32 hash (test run) : AF0250BC CRC32 hash : AF0250BC CRC32 hash (skip zero) : 7616CA8F AccurateRip v1 signature : B250274A AccurateRip v2 signature : 8CAB8B13 ->Track not present in AccurateRip database. Statistics Read error : 0 Jitter error (maybe fixed) : 0 Retry sector count : 0 Damaged sector count : 0
Track 10 Filename : /Volumes/External HDD/Torrenst (Created)/Ute Lempter - Between Yesterday and Tomorrow (2009) FLAC/10 - Nevada.flac
Track gain : -8.96 dB Peak : 1.000000 CRC32 hash (test run) : 94E600A3 CRC32 hash : 94E600A3 CRC32 hash (skip zero) : 10BFA7F5 AccurateRip v1 signature : C31E62A9 AccurateRip v2 signature : 87B4D285 ->Track not present in AccurateRip database. Statistics Read error : 0 Jitter error (maybe fixed) : 0 Retry sector count : 0 Damaged sector count : 0
Track 11 Filename : /Volumes/External HDD/Torrenst (Created)/Ute Lempter - Between Yesterday and Tomorrow (2009) FLAC/11 - September Mourn.flac
Track gain : -5.80 dB Peak : 0.989807 CRC32 hash (test run) : 9209EC18 CRC32 hash : 9209EC18 CRC32 hash (skip zero) : B749BE85 AccurateRip v1 signature : C340E973 AccurateRip v2 signature : 833B8ABE ->Track not present in AccurateRip database. Statistics Read error : 0 Jitter error (maybe fixed) : 0 Retry sector count : 0 Damaged sector count : 0
No errors occurred
End of status report

Содержание индексной карты (.cue)

TITLE "Between Yesterday and Tomorrow"PERFORMER "Ute Lemper"CATALOG 0812864010473REM GENRE "Pop"REM DATE "2009"REM DISCID 9A0D9F0BFILE "01 - The Greatest Ride.wav" WAVE TRACK 01 AUDIO TITLE "The Greatest Ride" ISRC US2TE0901001 INDEX 01 00:00:00FILE "02 - Stranger Friend.wav" WAVE TRACK 02 AUDIO TITLE "Stranger Friend" ISRC US2TE0901002 INDEX 01 00:00:00FILE "03 - Blood and Feathers.wav" WAVE TRACK 03 AUDIO TITLE "Blood and Feathers" ISRC US2TE0901003 INDEX 01 00:00:00FILE "04 - Luna.wav" WAVE TRACK 04 AUDIO TITLE "Luna" ISRC US2TE0901004 INDEX 01 00:00:00 TRACK 05 AUDIO TITLE "Ghosts of Berlin" ISRC US2TE0901005 INDEX 00 03:52:57FILE "05 - Ghosts of Berlin.wav" WAVE INDEX 01 00:00:00 TRACK 06 AUDIO TITLE "La Mémoire et la Mer" ISRC FRW130800003 INDEX 00 07:11:30FILE "06 - La Mémoire et la Mer.wav" WAVE INDEX 01 00:00:00FILE "07 - Wings of Desire.wav" WAVE TRACK 07 AUDIO TITLE "Wings of Desire" ISRC US2TE0901006 INDEX 01 00:00:00FILE "08 - Nomad.wav" WAVE TRACK 08 AUDIO TITLE "Nomad" ISRC US2TE0901007 INDEX 01 00:00:00FILE "09 - Here Is Love.wav" WAVE TRACK 09 AUDIO TITLE "Here Is Love" ISRC US2TE0901008 INDEX 01 00:00:00FILE "10 - Nevada.wav" WAVE TRACK 10 AUDIO TITLE "Nevada" ISRC US2TE0901009 INDEX 01 00:00:00FILE "11 - September Mourn.wav" WAVE TRACK 11 AUDIO TITLE "September Mourn" ISRC US2TE0901010 INDEX 01 00:00:00


[torrentc.info]_t_5551896.torrent
Торрент: Зарегистрирован ·  [ 2018-04-28 22:50 ] ·  1833ffbe7182db5d1a150d10dd856c0a3ec843c0

30 KB

Статус: проверено
Скачан: 0 раз
Размер: 365 MB
Оценка: 
(Голосов: 0)
Сказали спасибо: 0  Спасибо
Похожие темы
[Профиль]    [ЛС]
Показать сообщения:    
Ответить на тему

Текущее время: Сегодня 09:29

Часовой пояс: GMT + 7



Вы не можете начинать темы
Вы не можете отвечать на сообщения
Вы не можете редактировать свои сообщения
Вы не можете удалять свои сообщения
Вы не можете голосовать в опросах
Вы не можете прикреплять файлы к сообщениям
Вы можете скачивать файлы