(R&B/Soul) [CD] The Weeknd - My Dear Melancholy, - 2018, FLAC (tracks+.cue), lossless

Ответить на тему
Статистика раздачи [Обновить пиров]
Размер:  135 MB   |    Зарегистрирован:  4 месяца 22 дня   |    Скачан:  0 раз

Полного источника не было: Никогда

 
   
 
 
 
Автор Сообщение

torrentc.info

Создавать темы 27-Апр-2018 18:39

[Цитировать]

The Weeknd / My Dear Melancholy,
Жанр: R&B/Soul
Носитель: CD
Страна-производитель диска (релиза): USA
Год издания: 2018
Издатель (лейбл): Republic Records
Номер по каталогу: B0028412-02
Страна исполнителя (группы): Canada
Аудиокодек: FLAC (*.flac)
Тип рипа: tracks+.cue
Битрейт аудио: lossless
Продолжительность: 00:21:53
Источник (релизер): Red (almosthelpless96)
Наличие сканов в содержимом раздачи: нет

Треклист:
01. Call Out My Name (03:49)
02. Try Me (03:41)
03. Wasted Times (03:41)
04. I Was Never There (feat. Gesaffelstein) (04:01)
05. Hurt You (feat. Gesaffelstein) (03:50)
06. Privilege (02:51)

Лог создания рипа

Exact Audio Copy V1.3 from 2. September 2016
EAC extraction logfile from 14. April 2018, 11:08
The Weeknd / My Dear Melancholy,
Used drive : HL-DT-STDVDRAM SP80NB80 Adapter: 1 ID: 0
Read mode : SecureUtilize accurate stream : YesDefeat audio cache : YesMake use of C2 pointers : No
Read offset correction : 6Overread into Lead-In and Lead-Out : NoFill up missing offset samples with silence : YesDelete leading and trailing silent blocks : NoNull samples used in CRC calculations : YesUsed interface : Native Win32 interface for Win NT & 2000Gap handling : Appended to previous track
Used output format : User Defined EncoderSelected bitrate : 1024 kBit/sQuality : HighAdd ID3 tag : NoCommand line compressor : C:\Program Files (x86)\Exact Audio Copy\Flac\flac.exeAdditional command line options : -8 -e -p -V -T "ARTIST=%artist%" -T "TITLE=%title%" -T "ALBUM=%albumtitle%" -T "DATE=%year%" -T "TRACKNUMBER=%tracknr%" -T "GENRE=%genre%" -T "PERFORMER=%albuminterpret%" -T "COMPOSER=%composer%" %haslyrics%--tag-from-file=LYRICS="%lyricsfile%"%haslyrics% -T "ALBUMARTIST=%albumartist%" -T "DISCNUMBER=%cdnumber%" -T "TOTALDISCS=%totalcds%" -T "TOTALTRACKS=%numtracks%" -T "COMMENT=%comment%" %source% -o %dest%
TOC of the extracted CD
Track | Start | Length | Start sector | End sector --------------------------------------------------------- 1 | 0:00.00 | 3:48.28 | 0 | 17127 2 | 3:48.28 | 3:41.08 | 17128 | 33710 3 | 7:29.36 | 3:40.22 | 33711 | 50232 4 | 11:09.58 | 4:01.05 | 50233 | 68312 5 | 15:10.63 | 3:50.02 | 68313 | 85564 6 | 19:00.65 | 2:50.43 | 85565 | 98357
Track 1
Filename C:\EAC Rips\The Weeknd - My Dear Melancholy, (2018) [FLAC] [CD]\01 - Call Out My Name.wav
Pre-gap length 0:00:02.00
Peak level 98.9 % Extraction speed 1.3 X Track quality 99.9 % Test CRC 6483F2A8 Copy CRC 6483F2A8 Track not present in AccurateRip database Copy OK
Track 2
Filename C:\EAC Rips\The Weeknd - My Dear Melancholy, (2018) [FLAC] [CD]\02 - Try Me.wav
Peak level 98.9 % Extraction speed 1.4 X Track quality 99.9 % Test CRC BE89FBC1 Copy CRC BE89FBC1 Track not present in AccurateRip database Copy OK
Track 3
Filename C:\EAC Rips\The Weeknd - My Dear Melancholy, (2018) [FLAC] [CD]\03 - Wasted Times.wav
Peak level 98.9 % Extraction speed 2.0 X Track quality 100.0 % Test CRC 059D2583 Copy CRC 059D2583 Track not present in AccurateRip database Copy OK
Track 4
Filename C:\EAC Rips\The Weeknd - My Dear Melancholy, (2018) [FLAC] [CD]\04 - I Was Never There (feat. Gesaffelstein).wav
Peak level 98.9 % Extraction speed 2.2 X Track quality 100.0 % Test CRC 328E5D4D Copy CRC 328E5D4D Track not present in AccurateRip database Copy OK
Track 5
Filename C:\EAC Rips\The Weeknd - My Dear Melancholy, (2018) [FLAC] [CD]\05 - Hurt You (feat. Gesaffelstein).wav
Peak level 98.9 % Extraction speed 2.4 X Track quality 100.0 % Test CRC 3110A703 Copy CRC 3110A703 Track not present in AccurateRip database Copy OK
Track 6
Filename C:\EAC Rips\The Weeknd - My Dear Melancholy, (2018) [FLAC] [CD]\06 - Privilege.wav
Peak level 98.9 % Extraction speed 2.4 X Track quality 100.0 % Test CRC C086AA8B Copy CRC C086AA8B Track not present in AccurateRip database Copy OK
None of the tracks are present in the AccurateRip database
No errors occurred
End of status report
---- CUETools DB Plugin V2.1.6
[CTDB TOCID: eoGuy.bqjuMc2TMBBINhbo_YDhY-] foundSubmit result: eoGuy.bqjuMc2TMBBINhbo_YDhY- has been confirmedTrack | CTDB Status 1 | (1/1) Accurately ripped 2 | (1/1) Accurately ripped 3 | (1/1) Accurately ripped 4 | (1/1) Accurately ripped 5 | (1/1) Accurately ripped 6 | (1/1) Accurately ripped
==== Log checksum A0AE8A877FCCFA45666949BBE964239E73D9557230247EF60B4E481835DFA164 ====

Содержание индексной карты (.CUE)

REM GENRE R&BREM DATE 2018REM DISCID 33051F06REM COMMENT "ExactAudioCopy v1.3"CATALOG 0602567586258PERFORMER "The Weeknd"TITLE "My Dear Melancholy,"REM COMPOSER ""FILE "01 - Call Out My Name.wav" WAVE TRACK 01 AUDIO TITLE "Call Out My Name" PERFORMER "The Weeknd" REM COMPOSER "" ISRC USUG11800560 FLAGS DCP INDEX 01 00:00:00FILE "02 - Try Me.wav" WAVE TRACK 02 AUDIO TITLE "Try Me" PERFORMER "The Weeknd" REM COMPOSER "" ISRC USUG11800562 FLAGS DCP INDEX 01 00:00:00FILE "03 - Wasted Times.wav" WAVE TRACK 03 AUDIO TITLE "Wasted Times" PERFORMER "The Weeknd" REM COMPOSER "" ISRC USUG11800564 FLAGS DCP INDEX 01 00:00:00FILE "04 - I Was Never There (feat. Gesaffelstein).wav" WAVE TRACK 04 AUDIO TITLE "I Was Never There (feat. Gesaffelstein)" PERFORMER "The Weeknd" REM COMPOSER "" ISRC USUG11800570 FLAGS DCP INDEX 01 00:00:00FILE "05 - Hurt You (feat. Gesaffelstein).wav" WAVE TRACK 05 AUDIO TITLE "Hurt You (feat. Gesaffelstein)" PERFORMER "The Weeknd" REM COMPOSER "" ISRC USUG11800566 FLAGS DCP INDEX 01 00:00:00FILE "06 - Privilege.wav" WAVE TRACK 06 AUDIO TITLE "Privilege" PERFORMER "The Weeknd" REM COMPOSER "" ISRC USUG11800568 FLAGS DCP INDEX 01 00:00:00

Лог проверки качества

-----------------------
DON'T MODIFY THIS FILE
-----------------------
PERFORMER: auCDtect Task Manager, ver. 1.6.0 RC1 build 1.6.0.1Copyright (c) 2008-2010 y-soft. All rights reservedhttp://y-soft.org
ANALYZER: auCDtect: CD records authenticity detector, version 0.8.2Copyright (c) 2004 Oleg Berngardt. All rights reserved.Copyright (c) 2004 Alexander Djourik. All rights reserved.
FILE: 06 - Privilege.flac Size: 17125781 Hash: 24EA32DF028C1E9125BA5910A88577BF Accuracy: -m0 Conclusion: CDDA 100% Signature: 252ED5898DC6CF067BB2AC5CD9DADE9ACB8FC229FILE: 05 - Hurt You (feat. Gesaffelstein).flac Size: 25305791 Hash: D3CEB15577EB048B81A1A265FD16C0C7 Accuracy: -m0 Conclusion: CDDA 100% Signature: 9D09C0D84DB600A5492013A1239E42BAFAD9D41BFILE: 04 - I Was Never There (feat. Gesaffelstein).flac Size: 26265166 Hash: 853B24818E1F41DE70B2F621949CB745 Accuracy: -m0 Conclusion: CDDA 100% Signature: DE781160865EA3FADD67573EDC710EDAF76EE7F3FILE: 03 - Wasted Times.flac Size: 23645822 Hash: 5E275E16D8272F6B2D99FB71E0BC6F55 Accuracy: -m0 Conclusion: CDDA 100% Signature: 5127AEF3345E1C883CA7BCB138947EA9EADD8B77FILE: 02 - Try Me.flac Size: 23928937 Hash: 53E2405A3426AAB0949F418C554AB80A Accuracy: -m0 Conclusion: CDDA 100% Signature: 805EB6445A49EE55003FC4559088B9E2B09D23FAFILE: 01 - Call Out My Name.flac Size: 25078525 Hash: 15ACDA729E7F0D4F52DBB73C2AB8EF03 Accuracy: -m0 Conclusion: CDDA 100% Signature: 556D72A6853CFF516B3A8CCE06C44FB6111C3540


[torrentc.info]_t_5548787.torrent
Торрент: Зарегистрирован ·  [ 2018-04-27 18:37 ] ·  95141c4eaa3a4f6d6345d55e9c5ba4aa1488990f

12 KB

Статус: проверено
Скачан: 0 раз
Размер: 135 MB
Оценка: 
(Голосов: 0)
Сказали спасибо: 0  Спасибо
Похожие темы
[Профиль]    [ЛС]
Показать сообщения:    
Ответить на тему

Текущее время: Сегодня 19:57

Часовой пояс: GMT + 7



Вы не можете начинать темы
Вы не можете отвечать на сообщения
Вы не можете редактировать свои сообщения
Вы не можете удалять свои сообщения
Вы не можете голосовать в опросах
Вы не можете прикреплять файлы к сообщениям
Вы можете скачивать файлы