Годзилла / Godzilla (Гарет Эдвардс / Gareth Edwards) [2014, фантастика, боевик, триллер, HDRip] Dub (iTunes Russia)

Ответить на тему
Статистика раздачи [Обновить пиров]
Размер:  679 MB   |    Зарегистрирован:  6 месяцев 22 дня   |    Скачан:  0 раз

Полного источника не было: Никогда

 
   
 
 
 
Автор Сообщение

torrentc.info

Создавать темы 27-Апр-2018 18:37

[Цитировать]

Годзилла-«The king will rise»- Оригинальное Название: Godzilla
Год Выпуска: 2014 г.
Cтрана: США
Жанр: фантастика, боевик, триллер
Продолжительность: 02:03:07-Перевод: Профессиональный (дублированный) [iTunes Russia]-Режиссер: Гарет Эдвардс
В ролях: Аарон Тейлор-Джонсон, Кен Ватанабе, Элизабет Олсен, Жюльетт Бинош, Салли Хокинс, Дэвид Стрэтэйрн, Брайан Крэнстон, С.Дж. Адамс, Карсон Болд, Ричард Т. Джонс-Описание:
Человечество случайно разбудило гигантское древнее существо, что повлекло за собой ужасающие последствия…
-Автор рипа: lokomotiv23-Источник: BDRip 720p
Качество: HDRip
Формат файла: MP4
Видео кодек: H.264
Аудио кодек: AAC
Видео: MPEG-4 AVC Video (H.264) / 480x208 / 640 kbps / 23.976 fps / 40:17 / Main Profile 3.0
Аудио: AAC, 2 channels, 48 kHz, 128 kbps
-

MediaInfo

General
Complete name                       : Годзилла.2014.HDRip.mp4
Format                              : MPEG-4
Format profile                      : Base Media
Codec ID                            : isom
File size                           : 679 MiB
Duration                            : 2h 3mn
Overall bit rate mode               : Variable
Overall bit rate                    : 771 Kbps
Encoded date                        : UTC 2014-08-26 20:10:12
Tagged date                         : UTC 2014-08-26 20:10:12
Video
ID                                  : 1
Format                              : AVC
Format/Info                         : Advanced Video Codec
Format profile                      : Main@L3.0
Format settings, CABAC              : Yes
Format settings, ReFrames           : 3 frames
Codec ID                            : avc1
Codec ID/Info                       : Advanced Video Coding
Duration                            : 2h 3mn
Bit rate                            : 640 Kbps
Maximum bit rate                    : 3 244 Kbps
Width                               : 480 pixels
Height                              : 208 pixels
Display aspect ratio                : 2.35:1
Frame rate mode                     : Constant
Frame rate                          : 23.976 fps
Color space                         : YUV
Chroma subsampling                  : 4:2:0
Bit depth                           : 8 bits
Scan type                           : Progressive
Bits/(Pixel*Frame)                  : 0.267
Stream size                         : 563 MiB (83%)
Writing library                     : x264 core 130 r2273 b3065e6
Encoding settings                   : cabac=1 / ref=3 / deblock=1:-1:0 / analyse=0x1:0x131 / me=umh / subme=10 / psy=1 / psy_rd=1.00:0.20 / mixed_ref=1 / me_range=16 / chroma_me=1 / trellis=2 / 8x8dct=0 / cqm=0 / deadzone=21,11 / fast_pskip=0 / chroma_qp_offset=-3 / threads=6 / lookahead_threads=1 / sliced_threads=0 / nr=0 / decimate=0 / interlaced=0 / bluray_compat=0 / constrained_intra=0 / bframes=3 / b_pyramid=0 / b_adapt=2 / b_bias=0 / direct=3 / weightb=1 / open_gop=0 / weightp=2 / keyint=250 / keyint_min=23 / scenecut=40 / intra_refresh=0 / rc_lookahead=60 / rc=2pass / mbtree=1 / bitrate=640 / ratetol=1.0 / qcomp=0.60 / qpmin=0 / qpmax=69 / qpstep=4 / cplxblur=20.0 / qblur=0.5 / ip_ratio=1.40 / aq=1:1.00
Encoded date                        : UTC 2014-08-26 20:10:12
Tagged date                         : UTC 2014-08-26 20:10:21
Audio
ID                                  : 2
Format                              : AAC
Format/Info                         : Advanced Audio Codec
Format profile                      : LC
Codec ID                            : 40
Duration                            : 2h 3mn
Bit rate mode                       : Variable
Bit rate                            : 128 Kbps
Maximum bit rate                    : 180 Kbps
Channel(s)                          : 2 channels
Channel positions                   : Front: L R
Sampling rate                       : 48.0 KHz
Compression mode                    : Lossy
Delay relative to video             : 83ms
Stream size                         : 113 MiB (17%)
Encoded date                        : UTC 2014-08-26 20:10:19
Tagged date                         : UTC 2014-08-26 20:10:21
-

Скриншоты




[torrentc.info]_t_4983314.torrent
Торрент: Зарегистрирован ·  [ 2018-04-27 18:37 ] ·  fca4faf9f49132d58906d27de74f6218414c4d5a

14 KB

Статус: проверено
Скачан: 0 раз
Размер: 679 MB
Оценка: 
(Голосов: 0)
Сказали спасибо: 0  Спасибо
Похожие темы
[Профиль]    [ЛС]
Показать сообщения:    
Ответить на тему

Текущее время: Сегодня 23:25

Часовой пояс: GMT + 7



Вы не можете начинать темы
Вы не можете отвечать на сообщения
Вы не можете редактировать свои сообщения
Вы не можете удалять свои сообщения
Вы не можете голосовать в опросах
Вы не можете прикреплять файлы к сообщениям
Вы можете скачивать файлы