Пусть играет (Юлия Микушина) [2009, Россия, мультфильм, WEBRip]

Ответить на тему
Статистика раздачи [Обновить пиров]
Размер:  42 MB   |    Зарегистрирован:  5 месяцев 23 дня   |    Скачан:  1 раз

Полного источника не было: 2 месяца 16 дней

 
   
 
 
 
Автор Сообщение

torrentc.info

Создавать темы 27-Апр-2018 02:09

[Цитировать]

[img=right]https://a.radikal.ru/a43/1804/bc/ca63ed66927e.jpg[/img]
Пусть играет
Страна: Россия
Жанр: мультфильм
Продолжительность: 00:02:59
Год выхода: 2009
Режиссёр: Юлия Микушина
Описание: По шуточному стихотворению Артура Гиваргизова "Пусть ребёнок играет".
Качество: WEBRip
Формат файла: AVI
Видео: 1780 kbps, 704х528 (4:3), 25.000 fps, MPEG-4 Visual (XviD)
Аудио: 192 kbps, 44.1 kHz, 2 channels, MPEG Audio (MP3)
Субтитры: отсутствуют

Подробные технические данные

GeneralComplete name : Пусть играет. 2009.aviFormat : AVIFormat/Info : Audio Video InterleaveFile size : 42.4 MiBDuration : 2mn 59sOverall bit rate : 1 982 KbpsWriting application : MEncoder SVN-r30881(20100311-gcc4.3.3)Writing library : VirtualDub build 35491/release
VideoID : 0Format : MPEG-4 VisualFormat profile : Advanced Simple@L4Format settings, BVOP : 2Format settings, QPel : NoFormat settings, GMC : No warppointsFormat settings, Matrix : Default (H.263)Codec ID : XVIDCodec ID/Hint : XviDDuration : 2mn 59sBit rate : 1 780 KbpsWidth : 704 pixelsHeight : 528 pixelsDisplay aspect ratio : 4:3Frame rate : 25.000 fpsColor space : YUVChroma subsampling : 4:2:0Bit depth : 8 bitsScan type : ProgressiveCompression mode : LossyBits/(Pixel*Frame) : 0.192Stream size : 38.1 MiB (90%)Writing library : XviD 64
AudioID : 1Format : MPEG AudioFormat version : Version 1Format profile : Layer 3Mode : Joint stereoMode extension : MS StereoCodec ID : 55Codec ID/Hint : MP3Duration : 2mn 59sBit rate mode : ConstantBit rate : 192 KbpsChannel(s) : 2 channelsSampling rate : 44.1 KHzCompression mode : LossyStream size : 4.11 MiB (10%)Alignment : Split accross interleavesInterleave, duration : 40 ms (1.00 video frame)Interleave, preload duration : 500 msWriting library : LAME3.98


[torrentc.info]_t_5551914.torrent
Торрент: Зарегистрирован ·  [ 2018-04-27 02:09 ] ·  6e5b41e0195fc8eb7ab1fa33b59a998ff0e486ee

14 KB

Статус: проверено
Скачан: 1 раз
Размер: 42 MB
Оценка: 
(Голосов: 0)
Сказали спасибо: 0  Спасибо
Похожие темы
[Профиль]    [ЛС]
Показать сообщения:    
Ответить на тему

Текущее время: Сегодня 10:05

Часовой пояс: GMT + 7



Вы не можете начинать темы
Вы не можете отвечать на сообщения
Вы не можете редактировать свои сообщения
Вы не можете удалять свои сообщения
Вы не можете голосовать в опросах
Вы не можете прикреплять файлы к сообщениям
Вы можете скачивать файлы