Древние пришельцы / Ancient Aliens / Сезон: 10 / Серии: 1-10 из 10 (Кевин Бёрнс / Kevin Burns) [2015, Документальный, научно-популярный, BDRip-AVC] H2

Ответить на тему
Статистика раздачи [Обновить пиров]
Размер:  5.26 GB   |    Зарегистрирован:  6 месяцев   |    Скачан:  0 раз
Сидеров:  1  [  0 KB/s  ]   Подробная статистика скачивающих
 
   
 
 
 
Автор Сообщение

torrentc.info

Создавать темы 23-Апр-2018 21:50

[Цитировать]

-Древние пришельцы | Ancient Aliens-- Год выхода: 2015
Выпущено: США, Prometheus Entertainment, A&E Television Networks, LLC.
Режиссер: Кевин Бёрнс / Kevin Burns
Жанр: Документальный, научно-популярный
Продолжительность: ~00:43:00
Перевод: Профессиональный (многоголосый закадровый) | H2
Описание: Возможно ли, что разумные формы жизни посетили Землю тысячи лет назад, принеся с собой технологии кардинально повлиявшие на ход истории и развития человечества? Теория "древних пришельцев", опубликованная в 1968 году в бестселлере Эриха фон Дэникена "Колесницы богов", пошатнула представления людей об общеизвестном прогрессе человечества. Древние пещерные рисунки странных существ, остатки взлётно-посадочных полос в Перу, индийские тексты, описывающие "летающие машины богов"... вот лишь некоторые необычные археологические артефакты на которые ссылается Дэникен в качестве доказательств того, что "древние астронавты" были хорошо известны нашим предкам... В сериале рассказывается о разнообразных свидетельствах, что Землю посещали инопланетяне. Эта история охватывает 75 миллионов лет: от эры динозавров и Древнего Египта до странных небесных явлений в наши дни.
Качество: BDRip-AVC
Формат файла: MKV
Видео: AVC, 720x404, 23.976 fps, ~2000 kbps
Аудио: Русский (AAC, 48 kHz, 2 ch, 192 kbps); Английский (AAC, 48 kHz, 2 ch, 136 kbps)
Навигация по главам: есть
Сэмпл
Wilmots Сведение: maxim-b, большое спасибо!
[spoiler="Список выпусков/серий">

"]Запись: Wilmots Сведение: maxim-b, большое спасибо![spoiler="Список выпусков/серий

[url=https://en.wikipedia.org/wiki/Ancient_Aliens#Season_10_(2015)]01. Прищельцы до нашей эры / Aliens B.C.[/url]
Может ли быть, что много тысяч лет назад на Земле существовала высокоразвитая цивилизация? Возможно, в древних мифах о богах и героях есть изрядная доля правды?
02. Секретные материалы НАСА / NASA's Secret Agenda
Возможно, конструктор ракетно-космической техники Вернер фон Браун имел доступ к тайным архивам нацистов. Или его гениальные конструкторские решения были подсказаны инопланетными технологиями?
03. Пришельцы и роботы / Aliens and Robots
Человекоподобные роботы уже достигают того уровня сложности, который раньше считался возможным только в научной фантастике. Но создание искусственного человека - это не только шаг в будущее. Но и взгляд в прошлое.
04. Тёмные силы / Dark Forces
Почти у каждого народа Земли есть легенды о противостоянии темных и светлых сил - сил сверхъестественных или потусторонних. Существуют ли эти силы на самом деле? А если да, то какова их природа?
05. Внеземная эволюция / The Alien Evolution
Согласно теории палеоконтакта, боги из мифов и легенд разных народов - на самом деле не боги, а инопланетяне, владевшие продвинутой технологией, которую наши предки не понимали и поэтому объявляли божественной.
06. Другая Земля / The Other Earth
Космический телескоп Кеплер был запущен в 2009 году. С его помощью ученые обнаружили тысячи планет, на которых возможна жизнь. Возможно, эти открытия наконец ответят на вопрос: одиноки ли мы во Вселенной?
07. Создания глубин / Creatures of the Deep
В августе 2014 русские космонавты, работавшие на МКС, обнаружили на иллюминаторах, чего никто не ожидал: живой морской планктон. Если морские существа могут жить в космосе, не живут ли в морях космические пришельцы?
08. Круги с неба / Circles from the Sky
По всему миру было обнаружено более 10 000 странных кругов на полях: более чем в 50 странах, почти во всех частях света. Эти явления часто сопровождаются природными аномалиями, странным свечением и даже активностью НЛО.
09. Инопланетные войны / The Alien Wars
Возможно, у военных США действительно существует секретная космическая программа? А если да, не готовятся ли они к космической войне с другими народами… или с другими пленетами?
10. Запретные зоны / The Forbidden Zones
Тысячи древних реликвий в Ираке и Сирии были намеренно уничтожены. В горах Тибета и джунглях Центральной Америки систематически уничтожались древние священные тексты. Возможно, за этим стоит некий заговор?

MediaInfo

GeneralUnique ID : 330355439025117418079092499379048105679 (0xF88824AAC8DD027413EF32F71C3746CF)Complete name : Ancient.Aliens.S10.BDRip.x264-BiQ\Ancient Aliens (Season 10) 2015 BDRip-AVC\ancient.aliens.s10e08.circles.from.the.sky.bdrip.x264.mkvFormat : MatroskaFormat version : Version 4 / Version 2File size : 728 MiBDuration : 42 min 11 sOverall bit rate : 2 412 kb/sEncoded date : UTC 2018-03-30 17:16:01Writing application : mkvmerge v21.0.0 ('Tardigrades Will Inherit The Earth') 64-bitWriting library : libebml v1.3.5 + libmatroska v1.4.8
VideoID : 1Format : AVCFormat/Info : Advanced Video CodecFormat profile : High@L3.1Format settings : CABAC / 5 Ref FramesFormat settings, CABAC : YesFormat settings, ReFrames : 5 framesCodec ID : V_MPEG4/ISO/AVCDuration : 42 min 11 sBit rate : 2 083 kb/sWidth : 720 pixelsHeight : 404 pixelsDisplay aspect ratio : 16:9Frame rate mode : ConstantFrame rate : 23.976 (24000/1001) FPSColor space : YUVChroma subsampling : 4:2:0Bit depth : 8 bitsScan type : ProgressiveBits/(Pixel*Frame) : 0.299Stream size : 629 MiB (86%)Writing library : x264 core 152 r2851 ba24899Encoding settings : cabac=1 / ref=5 / deblock=1:-2:-2 / analyse=0x3:0x113 / me=hex / subme=8 / psy=1 / psy_rd=1.00:0.00 / mixed_ref=1 / me_range=16 / chroma_me=1 / trellis=2 / 8x8dct=1 / cqm=0 / deadzone=21,11 / fast_pskip=1 / chroma_qp_offset=-2 / threads=24 / lookahead_threads=3 / sliced_threads=0 / nr=0 / decimate=1 / interlaced=0 / bluray_compat=0 / constrained_intra=0 / bframes=3 / b_pyramid=2 / b_adapt=1 / b_bias=0 / direct=3 / weightb=1 / open_gop=0 / weightp=2 / keyint=240 / keyint_min=24 / scenecut=40 / intra_refresh=0 / rc_lookahead=50 / rc=crf / mbtree=1 / crf=19.0 / qcomp=0.60 / qpmin=0 / qpmax=69 / qpstep=4 / ip_ratio=1.40 / aq=1:0.70Language : EnglishDefault : YesForced : NoColor range : LimitedMatrix coefficients : BT.709
Audio #1ID : 2Format : AACFormat/Info : Advanced Audio CodecFormat profile : LCCodec ID : A_AAC-2Duration : 42 min 11 sBit rate : 192 kb/sChannel(s) : 2 channelsChannel positions : Front: L RSampling rate : 48.0 kHzFrame rate : 46.875 FPS (1024 SPF)Compression mode : LossyDelay relative to video : 20 msStream size : 57.3 MiB (8%)Language : RussianDefault : YesForced : No
Audio #2ID : 3Format : AACFormat/Info : Advanced Audio CodecFormat profile : LCCodec ID : A_AAC-2Duration : 42 min 11 sBit rate : 136 kb/sChannel(s) : 2 channelsChannel positions : Front: L RSampling rate : 48.0 kHzFrame rate : 46.875 FPS (1024 SPF)Compression mode : LossyDelay relative to video : 20 msStream size : 40.9 MiB (6%)Language : EnglishDefault : NoForced : No
Menu #100:00:00.000 : en:00:00:00.00000:05:00.300 : en:00:05:00.30000:10:00.600 : en:00:10:00.60000:15:00.900 : en:00:15:00.90000:20:01.200 : en:00:20:01.20000:25:01.500 : en:00:25:01.50000:30:01.800 : en:00:30:01.80000:35:02.100 : en:00:35:02.10000:40:02.400 : en:00:40:02.40000:41:49.132 : en:00:41:49.132
Menu #200:00:00.044 : en:00:00:00.044

Скриншоты



[torrentc.info]_t_5542797.torrent
Торрент: Зарегистрирован ·  [ 2018-04-23 21:47 ] ·  775cc6cff5c8d83ba42479a24647c6361a62cff8

14 KB

Статус: проверено
Скачан: 0 раз
Размер: 5.26 GB
Оценка: 
(Голосов: 0)
Сказали спасибо: 0  Спасибо
Похожие темы
[Профиль]    [ЛС]
Показать сообщения:    
Ответить на тему

Текущее время: Сегодня 12:33

Часовой пояс: GMT + 7



Вы не можете начинать темы
Вы не можете отвечать на сообщения
Вы не можете редактировать свои сообщения
Вы не можете удалять свои сообщения
Вы не можете голосовать в опросах
Вы не можете прикреплять файлы к сообщениям
Вы можете скачивать файлы