(Avant-Garde, Avant-Folk) [CD] Noise - 天皇 (Tenno) - 1997 (1980), FLAC (tracks), lossless

Ответить на тему
Статистика раздачи [Обновить пиров]
Размер:  274 MB   |    Зарегистрирован:  5 месяцев 26 дней   |    Скачан:  0 раз

Полного источника не было: Никогда

 
   
 
 
 
Автор Сообщение

torrentc.info

Создавать темы 22-Апр-2018 22:50

[Цитировать]

Noise / 天皇 (Tenno)
[img=right]https://i104.fastpic.ru/big/2018/0419/3a/df4a48d073...0ff73a.jpg[/img]
Жанр: Avant-Garde, Avant-Folk
Носитель: CD
Страна-производитель диска (релиза): Jp
Год издания: 1997 (1980)
Издатель (лейбл): Pataphysique Records ‎
Номер по каталогу: DD-005
Страна исполнителя (группы): jp
Аудиокодек: FLAC (*.flac)
Тип рипа: tracks
Битрейт аудио: lossless
Продолжительность: 0:47:37
Источник (релизер): what.cd
Наличие сканов в содержимом раздачи: нет
Треклист:
01 死 9:19
02 水 7:57
03 地球は青い 2:07
04 天皇 10:34
05 羊 7:42
06 1.'80.1.16.Minor. 3:06
07 2.'79.12.15.Tokyo Rockabilly Club 6:51

Лог создания рипа

X Lossless Decoder version 20100518 (120.3)
XLD extraction logfile from 2010-07-04 22:23:31 -0700
De-Noise / 天皇
Used drive : TSSTcorp CDDVDW SE-S084C (revision TU00)
Use cdparanoia mode : YES (CDParanoia III 10.2 engine)Disable audio cache : OK for the drive with cache less than 2750KBMake use of C2 pointers : NORead offset correction : 6Max retry count : 100
TOC of the extracted CD Track | Start | Length | Start sector | End sector --------------------------------------------------------- 1 | 00:00:00 | 09:19:20 | 0 | 41944 2 | 09:19:20 | 07:56:70 | 41945 | 77714 3 | 17:16:15 | 02:07:37 | 77715 | 87276 4 | 19:23:52 | 10:33:68 | 87277 | 134819 5 | 29:57:45 | 07:42:27 | 134820 | 169496 6 | 37:39:72 | 03:05:48 | 169497 | 183419 7 | 40:45:45 | 06:51:35 | 183420 | 214279
Track 01 Filename : /Users/edward/Documents/Azureus Downloads/01 - 死.flac
Pre-gap length : 00:02:00
CRC32 hash (test run) : 2B3DDDC7 CRC32 hash : 2B3DDDC7 CRC32 hash (skip zero) : 42AA0EF0 AccurateRip signature : 5A853B50 ->Track not present in AccurateRip database. Statistics Read error : 0 Skipped (treated as error) : 0 Edge jitter error (maybe fixed) : 0 Atom jitter error (maybe fixed) : 0 Drift error (maybe fixed) : 0 Dropped bytes error (maybe fixed) : 0 Duplicated bytes error (maybe fixed) : 0 Inconsistency in error sectors : 0
Track 02 Filename : /Users/edward/Documents/Azureus Downloads/02 - 水.flac
Pre-gap length : 00:07:18
CRC32 hash (test run) : 253435FD CRC32 hash : 253435FD CRC32 hash (skip zero) : E5A84B94 AccurateRip signature : 2A36FDC6 ->Track not present in AccurateRip database. Statistics Read error : 0 Skipped (treated as error) : 0 Edge jitter error (maybe fixed) : 1 Atom jitter error (maybe fixed) : 1 Drift error (maybe fixed) : 0 Dropped bytes error (maybe fixed) : 0 Duplicated bytes error (maybe fixed) : 0 Inconsistency in error sectors : 0
Track 03 Filename : /Users/edward/Documents/Azureus Downloads/03 - 地球は青い.flac
Pre-gap length : 00:09:40
CRC32 hash (test run) : BA0A6023 CRC32 hash : BA0A6023 CRC32 hash (skip zero) : 327C845C AccurateRip signature : 91CB8512 ->Track not present in AccurateRip database. Statistics Read error : 0 Skipped (treated as error) : 0 Edge jitter error (maybe fixed) : 0 Atom jitter error (maybe fixed) : 0 Drift error (maybe fixed) : 0 Dropped bytes error (maybe fixed) : 0 Duplicated bytes error (maybe fixed) : 0 Inconsistency in error sectors : 0
Track 04 Filename : /Users/edward/Documents/Azureus Downloads/04 - 天皇.flac
Pre-gap length : 00:07:42
CRC32 hash (test run) : 29E23D58 CRC32 hash : 29E23D58 CRC32 hash (skip zero) : 99BBC641 AccurateRip signature : 9133A290 ->Track not present in AccurateRip database. Statistics Read error : 0 Skipped (treated as error) : 0 Edge jitter error (maybe fixed) : 0 Atom jitter error (maybe fixed) : 0 Drift error (maybe fixed) : 0 Dropped bytes error (maybe fixed) : 0 Duplicated bytes error (maybe fixed) : 0 Inconsistency in error sectors : 0
Track 05 Filename : /Users/edward/Documents/Azureus Downloads/05 - 羊.flac
Pre-gap length : 00:07:43
CRC32 hash (test run) : 3B7A8088 CRC32 hash : 3B7A8088 CRC32 hash (skip zero) : 731FA6EE AccurateRip signature : D985BE7C ->Track not present in AccurateRip database. Statistics Read error : 0 Skipped (treated as error) : 0 Edge jitter error (maybe fixed) : 0 Atom jitter error (maybe fixed) : 0 Drift error (maybe fixed) : 0 Dropped bytes error (maybe fixed) : 0 Duplicated bytes error (maybe fixed) : 0 Inconsistency in error sectors : 0
Track 06 Filename : /Users/edward/Documents/Azureus Downloads/06 - secret-1.flac
Pre-gap length : 00:14:42
CRC32 hash (test run) : E0B2D224 CRC32 hash : E0B2D224 CRC32 hash (skip zero) : 06AEDE4C AccurateRip signature : 106154FA ->Track not present in AccurateRip database. Statistics Read error : 0 Skipped (treated as error) : 0 Edge jitter error (maybe fixed) : 0 Atom jitter error (maybe fixed) : 0 Drift error (maybe fixed) : 0 Dropped bytes error (maybe fixed) : 0 Duplicated bytes error (maybe fixed) : 0 Inconsistency in error sectors : 0
Track 07 Filename : /Users/edward/Documents/Azureus Downloads/07 - secret-2.flac
Pre-gap length : 00:02:05
CRC32 hash (test run) : 90D4BB13 CRC32 hash : 90D4BB13 CRC32 hash (skip zero) : E7EA7ECE AccurateRip signature : B319449D ->Track not present in AccurateRip database. Statistics Read error : 0 Skipped (treated as error) : 0 Edge jitter error (maybe fixed) : 0 Atom jitter error (maybe fixed) : 0 Drift error (maybe fixed) : 0 Dropped bytes error (maybe fixed) : 0 Duplicated bytes error (maybe fixed) : 0 Inconsistency in error sectors : 0
No errors occurred
End of status report

Лог проверки качества

-----------------------
DON'T MODIFY THIS FILE
-----------------------
PERFORMER: auCDtect Task Manager, ver. 1.6.0 RC1 build 1.6.0.1Copyright (c) 2008-2010 y-soft. All rights reservedhttp://y-soft.org
ANALYZER: auCDtect: CD records authenticity detector, version 0.8.2Copyright (c) 2004 Oleg Berngardt. All rights reserved.Copyright (c) 2004 Alexander Djourik. All rights reserved.
FILE: 07 - secret-2.flac Size: 43647987 Hash: 31C03E6908072C04968D3B928758F247 Accuracy: -m0 Conclusion: CDDA 99% Signature: 73DA8AC86A6B67B9B5E38A8F4BDE5740B3C46D09FILE: 06 - secret-1.flac Size: 16336202 Hash: 9AACA1F875295018C658FF8A0AB6523B Accuracy: -m0 Conclusion: CDDA 100% Signature: EBE7143EA1712CEB5DC951C07E8F6CF31671157DFILE: 05 - 羊.flac Size: 47126574 Hash: 6B6509DBBABA9ADDC5215DFDC59A2B5F Accuracy: -m0 Conclusion: CDDA 100% Signature: A55374414C83EE5AA6D75061562DDA845FD36F83FILE: 04 - 天皇.flac Size: 61751883 Hash: A4BD45E804F8C29F90592C704BD0A1C8 Accuracy: -m0 Conclusion: CDDA 99% Signature: D11DF148D3299316022759EE179515A58C09D63EFILE: 03 - 地球は青い.flac Size: 12734762 Hash: 83F968CE280A9A80838E3C055628841A Accuracy: -m0 Conclusion: CDDA 100% Signature: 9232C2A0465B86838A19B7DEFF6BB011D7D24C96FILE: 02 - 水.flac Size: 48667049 Hash: 409361D8EF725AEAD216575CAED23E98 Accuracy: -m0 Conclusion: CDDA 100% Signature: 67D3ADE5E5C1B3DCD8EA5D6C4AF8A05F61D2A013FILE: 01 - 死.flac Size: 57486099 Hash: BD916284B2EAAC9AF259DB3CB0773153 Accuracy: -m0 Conclusion: CDDA 100% Signature: DB5B7448A152E225F07E7ADC7626BB6B0F901D97


[torrentc.info]_t_5550957.torrent
Торрент: Зарегистрирован ·  [ 2018-04-22 22:49 ] ·  89089da0d5e94d92781104bb2ccb91803ff2f922

44 KB

Статус: проверено
Скачан: 0 раз
Размер: 274 MB
Оценка: 
(Голосов: 0)
Сказали спасибо: 0  Спасибо
Похожие темы
[Профиль]    [ЛС]
Показать сообщения:    
Ответить на тему

Текущее время: Сегодня 22:59

Часовой пояс: GMT + 7



Вы не можете начинать темы
Вы не можете отвечать на сообщения
Вы не можете редактировать свои сообщения
Вы не можете удалять свои сообщения
Вы не можете голосовать в опросах
Вы не можете прикреплять файлы к сообщениям
Вы можете скачивать файлы