[BR][OF] INXS - Kick (30th Anniversary Edition) - 1987/2017 (Rock, Pop Rock)

Ответить на тему
Статистика раздачи [Обновить пиров]
Размер:  19.14 GB   |    Зарегистрирован:  6 месяцев 25 дней   |    Скачан:  0 раз

Полного источника не было: Никогда

 
   
 
 
 
Автор Сообщение

torrentc.info

Создавать темы 21-Апр-2018 22:54

[Цитировать]

INXS / Kick
Формат файла записи/Источник записи: [BR][OF]
Наличие водяных знаков: Нет
Издание: 30th Anniversary Edition
Год издания/переиздания диска: 1987/2017
Жанр: Rock, Pop Rock
Издатель (лейбл): Atlantic Recording Corp./Rhino Entertainment Company
Продолжительность: 00:39:52 + 00:24:04 (video)
Наличие сканов в содержимом раздачи: Нет

Треклист:
■ Dolby Atmos Surround Sound & Hi-Resolution Audio
1 Guns In The Sky 2:22
2 New Sensation 3:40
3 Devil Inside 5:15
4 Need You Tonight 3:01
5 Mediate 2:36
6 The Loved One 3:37
7 Wild Life 3:10
8 Never Tear Us Apart 3:06
9 Mystify 3:17
10 Kick 3:14
11 Calling All Nations 3:02
12 Tiny Daggers 3:38
■ Promo Videos
13 Guns In The Sky 2:27
14 New Sensation 3:49
15 Devil Inside 5:15
16 Need You Tonight 3:05
17 Mediate 2:42
18 Never Tear Us Apart 3:07
19 Mystify 3:21
20 Kick 3:18
Формат файла: BDMV
Тип рипа: folder
Разрядность: 24/48
Формат файла: Dolby Atmos
Количество каналов: 7.1
Другие дорожки звука: 16/48 PCM 2.0

BDInfo

Disc Title: INXS Kick 30 anniversary 2017 Blu-ray Audio 1080i AVC Dolby Atmos 7.1Disc Size: 20 553 386 796 bytesProtection: AACSBD-Java: NoBDInfo: 0.5.8
Notes:
BDINFO HOME: Cinema Squid http://www.cinemasquid.com/blu-ray/tools/bdinfo
INCLUDES FORUMS REPORT FOR: AVS Forum Blu-ray Audio and Video Specifications Thread http://www.avsforum.com/avs-vb/showthread.php?t=1155731
********************PLAYLIST: 00001.MPLS********************
Код1
Total VideoTitle Codec Length Movie Size Disc Size Bitrate Bitrate Main Audio Track Secondary Audio Track----- ------ ------- -------------- -------------- ------- ------- ------------------ ---------------------00001.MPLS AVC 0:39:52 13 239 312 384 20 553 386 796 44,26 30,00 Dolby TrueHD 7.1 8836Kbps (48kHz/24-bit) LPCM 2.0 1536Kbps (48kHz/16-bit)
Код1
DISC INFO:
Disc Title: INXS Kick 30 anniversary 2017 Blu-ray Audio 1080i AVC Dolby Atmos 7.1Disc Size: 20 553 386 796 bytesProtection: AACSBD-Java: NoBDInfo: 0.5.8
PLAYLIST REPORT:
Name: 00001.MPLSLength: 0:39:52.757 (h:m:s.ms)Size: 13 239 312 384 bytesTotal Bitrate: 44,26 Mbps
VIDEO:
Codec Bitrate Description----- ------- -----------MPEG-4 AVC Video 30000 kbps 1080i / 29,970 fps / 16:9 / High Profile 4.1
AUDIO:
Codec Language Bitrate Description----- -------- ------- -----------Dolby TrueHD Audio English 8836 kbps 7.1 / 48 kHz / 8836 kbps / 24-bit (AC3 Embedded: 5.1 / 48 kHz / 640 kbps)LPCM Audio English 1536 kbps 2.0 / 48 kHz / 1536 kbps / 16-bit
FILES:
Name Time In Length Size Total Bitrate---- ------- ------ ---- -------------00006.M2TS 0:00:00.000 0:39:52.757 13 239 312 384 44 265
CHAPTERS:
Number Time In Length Avg Video Rate Max 1-Sec Rate Max 1-Sec Time Max 5-Sec Rate Max 5-Sec Time Max 10Sec Rate Max 10Sec Time Avg Frame Size Max Frame Size Max Frame Time------ ------- ------ -------------- -------------- -------------- -------------- -------------- -------------- -------------- -------------- -------------- --------------1 0:00:00.000 0:02:20.940 30 029 kbps 33 175 kbps 00:01:40.700 30 635 kbps 00:01:36.696 30 317 kbps 00:01:31.691 125 217 bytes 522 446 bytes 00:01:41.7012 0:02:20.940 0:03:39.686 29 985 kbps 33 177 kbps 00:03:22.302 30 635 kbps 00:05:00.800 30 317 kbps 00:03:13.293 125 063 bytes 522 671 bytes 00:03:23.3033 0:06:00.626 0:05:14.414 30 010 kbps 33 178 kbps 00:06:47.140 30 635 kbps 00:06:43.136 30 317 kbps 00:06:38.131 125 166 bytes 522 760 bytes 00:06:48.1414 0:11:15.041 0:03:01.548 29 982 kbps 33 173 kbps 00:13:36.582 30 634 kbps 00:13:32.578 30 317 kbps 00:13:27.573 125 050 bytes 522 168 bytes 00:13:37.5835 0:14:16.589 0:02:35.788 30 020 kbps 33 181 kbps 00:15:18.550 30 636 kbps 00:15:14.546 30 318 kbps 00:15:09.541 125 208 bytes 523 221 bytes 00:15:19.5516 0:16:52.378 0:03:36.149 30 000 kbps 33 184 kbps 00:20:27.526 30 637 kbps 00:20:23.522 30 318 kbps 00:20:18.517 125 124 bytes 523 580 bytes 00:20:28.5277 0:20:28.527 0:03:10.490 30 000 kbps 33 184 kbps 00:22:08.427 30 637 kbps 00:20:29.928 30 318 kbps 00:21:59.418 125 123 bytes 523 581 bytes 00:22:09.4288 0:23:39.017 0:03:04.584 29 982 kbps 33 164 kbps 00:23:39.618 30 633 kbps 00:23:41.219 30 316 kbps 00:25:24.322 125 052 bytes 521 123 bytes 00:23:39.8189 0:26:43.602 0:03:18.298 30 016 kbps 33 183 kbps 00:30:00.899 30 636 kbps 00:29:56.895 30 318 kbps 00:29:51.890 125 190 bytes 523 411 bytes 00:30:01.90010 0:30:01.900 0:03:12.091 29 983 kbps 33 183 kbps 00:30:40.138 30 636 kbps 00:30:36.134 30 318 kbps 00:30:31.129 125 054 bytes 523 413 bytes 00:30:41.13911 0:33:13.992 0:03:03.616 30 017 kbps 33 175 kbps 00:34:04.742 30 635 kbps 00:34:00.738 30 317 kbps 00:33:55.733 125 195 bytes 523 412 bytes 00:33:14.09212 0:36:17.608 0:03:35.148 29 980 kbps 33 170 kbps 00:36:19.010 30 634 kbps 00:36:19.010 30 317 kbps 00:37:20.471 125 062 bytes 521 804 bytes 00:37:30.481
STREAM DIAGNOSTICS:
File PID Type Codec Language Seconds Bitrate Bytes Packets---- --- ---- ----- -------- -------------- -------------- ------------- -----00006.M2TS 4113 (0x1011) 0x1B AVC 2392,624 30 001 8 972 724 048 48 828 00200006.M2TS 4352 (0x1100) 0x83 TrueHD eng (English) 2392,624 9 476 2 834 089 762 17 176 47300006.M2TS 4353 (0x1101) 0x80 LPCM eng (English) 2392,624 1 542 461 132 292 2 870 118
QUICK SUMMARY:
Disc Title: INXS Kick 30 anniversary 2017 Blu-ray Audio 1080i AVC Dolby Atmos 7.1Disc Size: 20 553 386 796 bytesProtection: AACSBD-Java: NoPlaylist: 00001.MPLSSize: 13 239 312 384 bytesLength: 0:39:52.757Total Bitrate: 44,26 MbpsVideo: MPEG-4 AVC Video / 30000 kbps / 1080i / 29,970 fps / 16:9 / High Profile 4.1Audio: English / Dolby TrueHD Audio / 7.1 / 48 kHz / 8836 kbps / 24-bit (AC3 Embedded: 5.1 / 48 kHz / 640 kbps)Audio: English / LPCM Audio / 2.0 / 48 kHz / 1536 kbps / 16-bit
********************PLAYLIST: 00004.MPLS********************
Код1
Total VideoTitle Codec Length Movie Size Disc Size Bitrate Bitrate Main Audio Track Secondary Audio Track----- ------ ------- -------------- -------------- ------- ------- ------------------ ---------------------00004.MPLS AVC 0:05:15 1 331 011 584 20 553 386 796 33,73 19,93 Dolby TrueHD 7.1 8532Kbps (48kHz/24-bit) LPCM 2.0 1536Kbps (48kHz/16-bit)
Код1
DISC INFO:
Disc Title: INXS Kick 30 anniversary 2017 Blu-ray Audio 1080i AVC Dolby Atmos 7.1Disc Size: 20 553 386 796 bytesProtection: AACSBD-Java: NoBDInfo: 0.5.8
PLAYLIST REPORT:
Name: 00004.MPLSLength: 0:05:15.682 (h:m:s.ms)Size: 1 331 011 584 bytesTotal Bitrate: 33,73 Mbps
VIDEO:
Codec Bitrate Description----- ------- -----------MPEG-4 AVC Video 19934 kbps 1080i / 29,970 fps / 16:9 / High Profile 4.1
AUDIO:
Codec Language Bitrate Description----- -------- ------- -----------Dolby TrueHD Audio English 8532 kbps 7.1 / 48 kHz / 8532 kbps / 24-bit (AC3 Embedded: 5.1 / 48 kHz / 640 kbps)LPCM Audio English 1536 kbps 2.0 / 48 kHz / 1536 kbps / 16-bit
FILES:
Name Time In Length Size Total Bitrate---- ------- ------ ---- -------------00002.M2TS 0:00:00.000 0:05:14.681 1 306 281 984 33 20900005.M2TS 0:05:14.681 0:00:01.000 24 729 600 197 639
CHAPTERS:
Number Time In Length Avg Video Rate Max 1-Sec Rate Max 1-Sec Time Max 5-Sec Rate Max 5-Sec Time Max 10Sec Rate Max 10Sec Time Avg Frame Size Max Frame Size Max Frame Time------ ------- ------ -------------- -------------- -------------- -------------- -------------- -------------- -------------- -------------- -------------- --------------1 0:00:00.000 0:05:14.681 19 997 kbps 60 224 kbps 00:04:27.700 38 929 kbps 00:04:27.667 29 375 kbps 00:04:24.163 83 395 bytes 639 492 bytes 00:01:47.3732 0:05:14.681 0:00:01.000 111 kbps 0 kbps 00:00:00.000 0 kbps 00:00:00.000 0 kbps 00:00:00.000 478 bytes 2 441 bytes 00:05:15.281
STREAM DIAGNOSTICS:
File PID Type Codec Language Seconds Bitrate Bytes Packets---- --- ---- ----- -------- -------------- -------------- ------------- -----00002.M2TS 4113 (0x1011) 0x1B AVC 314,614 20 001 786 577 208 4 280 38200002.M2TS 4352 (0x1100) 0x83 TrueHD eng (English) 314,614 8 909 350 379 102 2 134 96000002.M2TS 4353 (0x1101) 0x80 LPCM eng (English) 314,614 1 543 60 670 304 377 61600005.M2TS 4113 (0x1011) 0x1B AVC 0,901 145 16 308 11200005.M2TS 4352 (0x1100) 0x80 LPCM eng (English) 0,901 102 440 11 536 000 64 00000005.M2TS 4353 (0x1101) 0x80 LPCM eng (English) 0,901 102 440 11 536 000 64 000
QUICK SUMMARY:
Disc Title: INXS Kick 30 anniversary 2017 Blu-ray Audio 1080i AVC Dolby Atmos 7.1Disc Size: 20 553 386 796 bytesProtection: AACSBD-Java: NoPlaylist: 00004.MPLSSize: 1 331 011 584 bytesLength: 0:05:15.682Total Bitrate: 33,73 MbpsVideo: MPEG-4 AVC Video / 19934 kbps / 1080i / 29,970 fps / 16:9 / High Profile 4.1Audio: English / Dolby TrueHD Audio / 7.1 / 48 kHz / 8532 kbps / 24-bit (AC3 Embedded: 5.1 / 48 kHz / 640 kbps)Audio: English / LPCM Audio / 2.0 / 48 kHz / 1536 kbps / 16-bit
********************PLAYLIST: 00003.MPLS********************
Код1
Total VideoTitle Codec Length Movie Size Disc Size Bitrate Bitrate Main Audio Track Secondary Audio Track----- ------ ------- -------------- -------------- ------- ------- ------------------ ---------------------00003.MPLS AVC 0:03:48 996 501 504 20 553 386 796 34,87 19,90 Dolby TrueHD 7.1 9555Kbps (48kHz/24-bit) LPCM 2.0 1536Kbps (48kHz/16-bit)
Код1
DISC INFO:
Disc Title: INXS Kick 30 anniversary 2017 Blu-ray Audio 1080i AVC Dolby Atmos 7.1Disc Size: 20 553 386 796 bytesProtection: AACSBD-Java: NoBDInfo: 0.5.8
PLAYLIST REPORT:
Name: 00003.MPLSLength: 0:03:48.628 (h:m:s.ms)Size: 996 501 504 bytesTotal Bitrate: 34,87 Mbps
VIDEO:
Codec Bitrate Description----- ------- -----------MPEG-4 AVC Video 19900 kbps 1080i / 29,970 fps / 16:9 / High Profile 4.1
AUDIO:
Codec Language Bitrate Description----- -------- ------- -----------Dolby TrueHD Audio English 9555 kbps 7.1 / 48 kHz / 9555 kbps / 24-bit (AC3 Embedded: 5.1 / 48 kHz / 640 kbps)LPCM Audio English 1536 kbps 2.0 / 48 kHz / 1536 kbps / 16-bit
FILES:
Name Time In Length Size Total Bitrate---- ------- ------ ---- -------------00001.M2TS 0:00:00.000 0:03:47.627 971 771 904 34 15300005.M2TS 0:03:47.627 0:00:01.000 24 729 600 197 639
CHAPTERS:
Number Time In Length Avg Video Rate Max 1-Sec Rate Max 1-Sec Time Max 5-Sec Rate Max 5-Sec Time Max 10Sec Rate Max 10Sec Time Avg Frame Size Max Frame Size Max Frame Time------ ------- ------ -------------- -------------- -------------- -------------- -------------- -------------- -------------- -------------- -------------- --------------1 0:00:00.000 0:03:47.627 19 987 kbps 33 296 kbps 00:02:02.088 27 888 kbps 00:01:06.332 26 448 kbps 00:00:58.691 83 352 bytes 248 536 bytes 00:02:23.3432 0:03:47.627 0:00:01.000 111 kbps 0 kbps 00:00:00.000 0 kbps 00:00:00.000 0 kbps 00:00:00.000 478 bytes 2 441 bytes 00:03:48.228
STREAM DIAGNOSTICS:
File PID Type Codec Language Seconds Bitrate Bytes Packets---- --- ---- ----- -------- -------------- -------------- ------------- -----00001.M2TS 4113 (0x1011) 0x1B AVC 227,494 19 999 568 708 437 3 094 79200001.M2TS 4352 (0x1100) 0x83 TrueHD eng (English) 227,494 9 840 279 825 948 1 685 69400001.M2TS 4353 (0x1101) 0x80 LPCM eng (English) 227,494 1 543 43 886 100 273 15000005.M2TS 4113 (0x1011) 0x1B AVC 0,901 145 16 308 11200005.M2TS 4352 (0x1100) 0x80 LPCM eng (English) 0,901 102 440 11 536 000 64 00000005.M2TS 4353 (0x1101) 0x80 LPCM eng (English) 0,901 102 440 11 536 000 64 000
QUICK SUMMARY:
Disc Title: INXS Kick 30 anniversary 2017 Blu-ray Audio 1080i AVC Dolby Atmos 7.1Disc Size: 20 553 386 796 bytesProtection: AACSBD-Java: NoPlaylist: 00003.MPLSSize: 996 501 504 bytesLength: 0:03:48.628Total Bitrate: 34,87 MbpsVideo: MPEG-4 AVC Video / 19900 kbps / 1080i / 29,970 fps / 16:9 / High Profile 4.1Audio: English / Dolby TrueHD Audio / 7.1 / 48 kHz / 9555 kbps / 24-bit (AC3 Embedded: 5.1 / 48 kHz / 640 kbps)Audio: English / LPCM Audio / 2.0 / 48 kHz / 1536 kbps / 16-bit
********************PLAYLIST: 00009.MPLS********************
Код1
Total VideoTitle Codec Length Movie Size Disc Size Bitrate Bitrate Main Audio Track Secondary Audio Track----- ------ ------- -------------- -------------- ------- ------- ------------------ ---------------------00009.MPLS AVC 0:03:20 859 557 888 20 553 386 796 34,29 19,89 Dolby TrueHD 7.1 8938Kbps (48kHz/24-bit) LPCM 2.0 1536Kbps (48kHz/16-bit)
Код1
DISC INFO:
Disc Title: INXS Kick 30 anniversary 2017 Blu-ray Audio 1080i AVC Dolby Atmos 7.1Disc Size: 20 553 386 796 bytesProtection: AACSBD-Java: NoBDInfo: 0.5.8
PLAYLIST REPORT:
Name: 00009.MPLSLength: 0:03:20.567 (h:m:s.ms)Size: 859 557 888 bytesTotal Bitrate: 34,29 Mbps
VIDEO:
Codec Bitrate Description----- ------- -----------MPEG-4 AVC Video 19894 kbps 1080i / 29,970 fps / 16:9 / High Profile 4.1
AUDIO:
Codec Language Bitrate Description----- -------- ------- -----------Dolby TrueHD Audio English 8938 kbps 7.1 / 48 kHz / 8938 kbps / 24-bit (AC3 Embedded: 5.1 / 48 kHz / 640 kbps)LPCM Audio English 1536 kbps 2.0 / 48 kHz / 1536 kbps / 16-bit
FILES:
Name Time In Length Size Total Bitrate---- ------- ------ ---- -------------00016.M2TS 0:00:00.000 0:03:19.566 834 828 288 33 46600005.M2TS 0:03:19.566 0:00:01.000 24 729 600 197 639
CHAPTERS:
Number Time In Length Avg Video Rate Max 1-Sec Rate Max 1-Sec Time Max 5-Sec Rate Max 5-Sec Time Max 10Sec Rate Max 10Sec Time Avg Frame Size Max Frame Size Max Frame Time------ ------- ------ -------------- -------------- -------------- -------------- -------------- -------------- -------------- -------------- -------------- --------------1 0:00:00.000 0:03:19.566 19 994 kbps 39 363 kbps 00:00:57.891 31 450 kbps 00:01:32.492 28 073 kbps 00:01:30.423 83 376 bytes 342 923 bytes 00:00:49.2492 0:03:19.566 0:00:01.000 111 kbps 0 kbps 00:00:00.000 0 kbps 00:00:00.000 0 kbps 00:00:00.000 478 bytes 2 441 bytes 00:03:20.166
STREAM DIAGNOSTICS:
File PID Type Codec Language Seconds Bitrate Bytes Packets---- --- ---- ----- -------- -------------- -------------- ------------- -----00016.M2TS 4113 (0x1011) 0x1B AVC 199,499 20 000 498 752 668 2 714 11500016.M2TS 4352 (0x1100) 0x83 TrueHD eng (English) 199,499 9 166 228 586 904 1 387 75100016.M2TS 4353 (0x1101) 0x80 LPCM eng (English) 199,499 1 543 38 476 132 239 47800005.M2TS 4113 (0x1011) 0x1B AVC 0,901 145 16 308 11200005.M2TS 4352 (0x1100) 0x80 LPCM eng (English) 0,901 102 440 11 536 000 64 00000005.M2TS 4353 (0x1101) 0x80 LPCM eng (English) 0,901 102 440 11 536 000 64 000
QUICK SUMMARY:
Disc Title: INXS Kick 30 anniversary 2017 Blu-ray Audio 1080i AVC Dolby Atmos 7.1Disc Size: 20 553 386 796 bytesProtection: AACSBD-Java: NoPlaylist: 00009.MPLSSize: 859 557 888 bytesLength: 0:03:20.567Total Bitrate: 34,29 MbpsVideo: MPEG-4 AVC Video / 19894 kbps / 1080i / 29,970 fps / 16:9 / High Profile 4.1Audio: English / Dolby TrueHD Audio / 7.1 / 48 kHz / 8938 kbps / 24-bit (AC3 Embedded: 5.1 / 48 kHz / 640 kbps)Audio: English / LPCM Audio / 2.0 / 48 kHz / 1536 kbps / 16-bit
********************PLAYLIST: 00007.MPLS********************
Код1
Total VideoTitle Codec Length Movie Size Disc Size Bitrate Bitrate Main Audio Track Secondary Audio Track----- ------ ------- -------------- -------------- ------- ------- ------------------ ---------------------00007.MPLS AVC 0:03:17 874 407 936 20 553 386 796 35,38 19,85 Dolby TrueHD 7.1 9993Kbps (48kHz/24-bit) LPCM 2.0 1536Kbps (48kHz/16-bit)
Код1
DISC INFO:
Disc Title: INXS Kick 30 anniversary 2017 Blu-ray Audio 1080i AVC Dolby Atmos 7.1Disc Size: 20 553 386 796 bytesProtection: AACSBD-Java: NoBDInfo: 0.5.8
PLAYLIST REPORT:
Name: 00007.MPLSLength: 0:03:17.697 (h:m:s.ms)Size: 874 407 936 bytesTotal Bitrate: 35,38 Mbps
VIDEO:
Codec Bitrate Description----- ------- -----------MPEG-4 AVC Video 19850 kbps 1080i / 29,970 fps / 16:9 / High Profile 4.1
AUDIO:
Codec Language Bitrate Description----- -------- ------- -----------Dolby TrueHD Audio English 9993 kbps 7.1 / 48 kHz / 9993 kbps / 24-bit (AC3 Embedded: 5.1 / 48 kHz / 640 kbps)LPCM Audio English 1536 kbps 2.0 / 48 kHz / 1536 kbps / 16-bit
FILES:
Name Time In Length Size Total Bitrate---- ------- ------ ---- -------------00007.M2TS 0:00:00.000 0:03:16.696 849 678 336 34 55800005.M2TS 0:03:16.696 0:00:01.000 24 729 600 197 639
CHAPTERS:
Number Time In Length Avg Video Rate Max 1-Sec Rate Max 1-Sec Time Max 5-Sec Rate Max 5-Sec Time Max 10Sec Rate Max 10Sec Time Avg Frame Size Max Frame Size Max Frame Time------ ------- ------ -------------- -------------- -------------- -------------- -------------- -------------- -------------- -------------- -------------- --------------1 0:00:00.000 0:03:16.696 19 950 kbps 43 224 kbps 00:00:17.717 31 120 kbps 00:00:15.215 28 266 kbps 00:00:10.210 83 196 bytes 541 754 bytes 00:02:18.6052 0:03:16.696 0:00:01.000 111 kbps 0 kbps 00:00:00.000 0 kbps 00:00:00.000 0 kbps 00:00:00.000 478 bytes 2 441 bytes 00:03:17.297
STREAM DIAGNOSTICS:
File PID Type Codec Language Seconds Bitrate Bytes Packets---- --- ---- ----- -------- -------------- -------------- ------------- -----00007.M2TS 4113 (0x1011) 0x1B AVC 196,630 19 957 490 521 072 2 669 35200007.M2TS 4352 (0x1100) 0x83 TrueHD eng (English) 196,630 10 222 251 234 698 1 513 42700007.M2TS 4353 (0x1101) 0x80 LPCM eng (English) 196,630 1 543 37 917 976 236 00400005.M2TS 4113 (0x1011) 0x1B AVC 0,901 145 16 308 11200005.M2TS 4352 (0x1100) 0x80 LPCM eng (English) 0,901 102 440 11 536 000 64 00000005.M2TS 4353 (0x1101) 0x80 LPCM eng (English) 0,901 102 440 11 536 000 64 000
QUICK SUMMARY:
Disc Title: INXS Kick 30 anniversary 2017 Blu-ray Audio 1080i AVC Dolby Atmos 7.1Disc Size: 20 553 386 796 bytesProtection: AACSBD-Java: NoPlaylist: 00007.MPLSSize: 874 407 936 bytesLength: 0:03:17.697Total Bitrate: 35,38 MbpsVideo: MPEG-4 AVC Video / 19850 kbps / 1080i / 29,970 fps / 16:9 / High Profile 4.1Audio: English / Dolby TrueHD Audio / 7.1 / 48 kHz / 9993 kbps / 24-bit (AC3 Embedded: 5.1 / 48 kHz / 640 kbps)Audio: English / LPCM Audio / 2.0 / 48 kHz / 1536 kbps / 16-bit
********************PLAYLIST: 00008.MPLS********************
Код1
Total VideoTitle Codec Length Movie Size Disc Size Bitrate Bitrate Main Audio Track Secondary Audio Track----- ------ ------- -------------- -------------- ------- ------- ------------------ ---------------------00008.MPLS AVC 0:03:06 799 868 928 20 553 386 796 34,29 19,89 Dolby TrueHD 7.1 8849Kbps (48kHz/24-bit) LPCM 2.0 1536Kbps (48kHz/16-bit)
Код1
DISC INFO:
Disc Title: INXS Kick 30 anniversary 2017 Blu-ray Audio 1080i AVC Dolby Atmos 7.1Disc Size: 20 553 386 796 bytesProtection: AACSBD-Java: NoBDInfo: 0.5.8
PLAYLIST REPORT:
Name: 00008.MPLSLength: 0:03:06.619 (h:m:s.ms)Size: 799 868 928 bytesTotal Bitrate: 34,29 Mbps
VIDEO:
Codec Bitrate Description----- ------- -----------MPEG-4 AVC Video 19887 kbps 1080i / 29,970 fps / 16:9 / High Profile 4.1
AUDIO:
Codec Language Bitrate Description----- -------- ------- -----------Dolby TrueHD Audio English 8849 kbps 7.1 / 48 kHz / 8849 kbps / 24-bit (AC3 Embedded: 5.1 / 48 kHz / 640 kbps)LPCM Audio English 1536 kbps 2.0 / 48 kHz / 1536 kbps / 16-bit
FILES:
Name Time In Length Size Total Bitrate---- ------- ------ ---- -------------00015.M2TS 0:00:00.000 0:03:05.618 775 139 328 33 40800005.M2TS 0:03:05.618 0:00:01.000 24 729 600 197 639
CHAPTERS:
Number Time In Length Avg Video Rate Max 1-Sec Rate Max 1-Sec Time Max 5-Sec Rate Max 5-Sec Time Max 10Sec Rate Max 10Sec Time Avg Frame Size Max Frame Size Max Frame Time------ ------- ------ -------------- -------------- -------------- -------------- -------------- -------------- -------------- -------------- -------------- --------------1 0:00:00.000 0:03:05.618 19 994 kbps 40 196 kbps 00:02:48.434 33 212 kbps 00:02:46.833 28 869 kbps 00:02:44.764 83 377 bytes 337 020 bytes 00:02:49.8362 0:03:05.618 0:00:01.000 111 kbps 0 kbps 00:00:00.000 0 kbps 00:00:00.000 0 kbps 00:00:00.000 478 bytes 2 441 bytes 00:03:06.219
STREAM DIAGNOSTICS:
File PID Type Codec Language Seconds Bitrate Bytes Packets---- --- ---- ----- -------- -------------- -------------- ------------- -----00015.M2TS 4113 (0x1011) 0x1B AVC 185,552 20 001 463 904 771 2 524 43700015.M2TS 4352 (0x1100) 0x83 TrueHD eng (English) 185,552 9 046 209 809 002 1 283 73000015.M2TS 4353 (0x1101) 0x80 LPCM eng (English) 185,552 1 543 35 787 536 222 74400005.M2TS 4113 (0x1011) 0x1B AVC 0,901 145 16 308 11200005.M2TS 4352 (0x1100) 0x80 LPCM eng (English) 0,901 102 440 11 536 000 64 00000005.M2TS 4353 (0x1101) 0x80 LPCM eng (English) 0,901 102 440 11 536 000 64 000
QUICK SUMMARY:
Disc Title: INXS Kick 30 anniversary 2017 Blu-ray Audio 1080i AVC Dolby Atmos 7.1Disc Size: 20 553 386 796 bytesProtection: AACSBD-Java: NoPlaylist: 00008.MPLSSize: 799 868 928 bytesLength: 0:03:06.619Total Bitrate: 34,29 MbpsVideo: MPEG-4 AVC Video / 19887 kbps / 1080i / 29,970 fps / 16:9 / High Profile 4.1Audio: English / Dolby TrueHD Audio / 7.1 / 48 kHz / 8849 kbps / 24-bit (AC3 Embedded: 5.1 / 48 kHz / 640 kbps)Audio: English / LPCM Audio / 2.0 / 48 kHz / 1536 kbps / 16-bit
********************PLAYLIST: 00005.MPLS********************
Код1
Total VideoTitle Codec Length Movie Size Disc Size Bitrate Bitrate Main Audio Track Secondary Audio Track----- ------ ------- -------------- -------------- ------- ------- ------------------ ---------------------00005.MPLS AVC 0:03:04 815 923 200 20 553 386 796 35,41 19,89 Dolby TrueHD 7.1 9957Kbps (48kHz/24-bit) LPCM 2.0 1536Kbps (48kHz/16-bit)
Код1
DISC INFO:
Disc Title: INXS Kick 30 anniversary 2017 Blu-ray Audio 1080i AVC Dolby Atmos 7.1Disc Size: 20 553 386 796 bytesProtection: AACSBD-Java: NoBDInfo: 0.5.8
PLAYLIST REPORT:
Name: 00005.MPLSLength: 0:03:04.317 (h:m:s.ms)Size: 815 923 200 bytesTotal Bitrate: 35,41 Mbps
VIDEO:
Codec Bitrate Description----- ------- -----------MPEG-4 AVC Video 19886 kbps 1080i / 29,970 fps / 16:9 / High Profile 4.1
AUDIO:
Codec Language Bitrate Description----- -------- ------- -----------Dolby TrueHD Audio English 9957 kbps 7.1 / 48 kHz / 9957 kbps / 24-bit (AC3 Embedded: 5.1 / 48 kHz / 640 kbps)LPCM Audio English 1536 kbps 2.0 / 48 kHz / 1536 kbps / 16-bit
FILES:
Name Time In Length Size Total Bitrate---- ------- ------ ---- -------------00003.M2TS 0:00:00.000 0:03:03.316 791 193 600 34 52800005.M2TS 0:03:03.316 0:00:01.000 24 729 600 197 639
CHAPTERS:
Number Time In Length Avg Video Rate Max 1-Sec Rate Max 1-Sec Time Max 5-Sec Rate Max 5-Sec Time Max 10Sec Rate Max 10Sec Time Avg Frame Size Max Frame Size Max Frame Time------ ------- ------ -------------- -------------- -------------- -------------- -------------- -------------- -------------- -------------- -------------- --------------1 0:00:00.000 0:03:03.316 19 994 kbps 38 843 kbps 00:00:57.257 31 448 kbps 00:00:53.153 27 169 kbps 00:00:49.582 83 376 bytes 470 607 bytes 00:00:57.3572 0:03:03.316 0:00:01.000 111 kbps 0 kbps 00:00:00.000 0 kbps 00:00:00.000 0 kbps 00:00:00.000 478 bytes 2 441 bytes 00:03:03.917
STREAM DIAGNOSTICS:
File PID Type Codec Language Seconds Bitrate Bytes Packets---- --- ---- ----- -------- -------------- -------------- ------------- -----00003.M2TS 4113 (0x1011) 0x1B AVC 183,216 20 005 458 147 270 2 493 18200003.M2TS 4352 (0x1100) 0x83 TrueHD eng (English) 183,216 10 157 232 613 990 1 401 18500003.M2TS 4353 (0x1101) 0x80 LPCM eng (English) 183,216 1 543 35 343 132 219 97800005.M2TS 4113 (0x1011) 0x1B AVC 0,901 145 16 308 11200005.M2TS 4352 (0x1100) 0x80 LPCM eng (English) 0,901 102 440 11 536 000 64 00000005.M2TS 4353 (0x1101) 0x80 LPCM eng (English) 0,901 102 440 11 536 000 64 000
QUICK SUMMARY:
Disc Title: INXS Kick 30 anniversary 2017 Blu-ray Audio 1080i AVC Dolby Atmos 7.1Disc Size: 20 553 386 796 bytesProtection: AACSBD-Java: NoPlaylist: 00005.MPLSSize: 815 923 200 bytesLength: 0:03:04.317Total Bitrate: 35,41 MbpsVideo: MPEG-4 AVC Video / 19886 kbps / 1080i / 29,970 fps / 16:9 / High Profile 4.1Audio: English / Dolby TrueHD Audio / 7.1 / 48 kHz / 9957 kbps / 24-bit (AC3 Embedded: 5.1 / 48 kHz / 640 kbps)Audio: English / LPCM Audio / 2.0 / 48 kHz / 1536 kbps / 16-bit
********************PLAYLIST: 00006.MPLS********************
Код1
Total VideoTitle Codec Length Movie Size Disc Size Bitrate Bitrate Main Audio Track Secondary Audio Track----- ------ ------- -------------- -------------- ------- ------- ------------------ ---------------------00006.MPLS AVC 0:02:41 676 030 464 20 553 386 796 33,50 19,87 Dolby TrueHD 7.1 8111Kbps (48kHz/24-bit) LPCM 2.0 1536Kbps (48kHz/16-bit)
Код1
DISC INFO:
Disc Title: INXS Kick 30 anniversary 2017 Blu-ray Audio 1080i AVC Dolby Atmos 7.1Disc Size: 20 553 386 796 bytesProtection: AACSBD-Java: NoBDInfo: 0.5.8
PLAYLIST REPORT:
Name: 00006.MPLSLength: 0:02:41.461 (h:m:s.ms)Size: 676 030 464 bytesTotal Bitrate: 33,50 Mbps
VIDEO:
Codec Bitrate Description----- ------- -----------MPEG-4 AVC Video 19870 kbps 1080i / 29,970 fps / 16:9 / High Profile 4.1
AUDIO:
Codec Language Bitrate Description----- -------- ------- -----------Dolby TrueHD Audio English 8111 kbps 7.1 / 48 kHz / 8111 kbps / 24-bit (AC3 Embedded: 5.1 / 48 kHz / 640 kbps)LPCM Audio English 1536 kbps 2.0 / 48 kHz / 1536 kbps / 16-bit
FILES:
Name Time In Length Size Total Bitrate---- ------- ------ ---- -------------00004.M2TS 0:00:00.000 0:02:40.460 651 300 864 32 47200005.M2TS 0:02:40.460 0:00:01.000 24 729 600 197 639
CHAPTERS:
Number Time In Length Avg Video Rate Max 1-Sec Rate Max 1-Sec Time Max 5-Sec Rate Max 5-Sec Time Max 10Sec Rate Max 10Sec Time Avg Frame Size Max Frame Size Max Frame Time------ ------- ------ -------------- -------------- -------------- -------------- -------------- -------------- -------------- -------------- -------------- --------------1 0:00:00.000 0:02:40.460 19 993 kbps 29 705 kbps 00:00:03.536 24 079 kbps 00:00:02.936 21 485 kbps 00:02:02.522 83 371 bytes 202 762 bytes 00:00:04.0032 0:02:40.460 0:00:01.000 111 kbps 0 kbps 00:00:00.000 0 kbps 00:00:00.000 0 kbps 00:00:00.000 478 bytes 2 441 bytes 00:02:41.060
STREAM DIAGNOSTICS:
File PID Type Codec Language Seconds Bitrate Bytes Packets---- --- ---- ----- -------- -------------- -------------- ------------- -----00004.M2TS 4113 (0x1011) 0x1B AVC 160,360 20 006 401 013 143 2 182 22600004.M2TS 4352 (0x1100) 0x83 TrueHD eng (English) 160,360 8 236 165 081 154 1 011 98800004.M2TS 4353 (0x1101) 0x80 LPCM eng (English) 160,360 1 543 30 936 688 192 55200005.M2TS 4113 (0x1011) 0x1B AVC 0,901 145 16 308 11200005.M2TS 4352 (0x1100) 0x80 LPCM eng (English) 0,901 102 440 11 536 000 64 00000005.M2TS 4353 (0x1101) 0x80 LPCM eng (English) 0,901 102 440 11 536 000 64 000
QUICK SUMMARY:
Disc Title: INXS Kick 30 anniversary 2017 Blu-ray Audio 1080i AVC Dolby Atmos 7.1Disc Size: 20 553 386 796 bytesProtection: AACSBD-Java: NoPlaylist: 00006.MPLSSize: 676 030 464 bytesLength: 0:02:41.461Total Bitrate: 33,50 MbpsVideo: MPEG-4 AVC Video / 19870 kbps / 1080i / 29,970 fps / 16:9 / High Profile 4.1Audio: English / Dolby TrueHD Audio / 7.1 / 48 kHz / 8111 kbps / 24-bit (AC3 Embedded: 5.1 / 48 kHz / 640 kbps)Audio: English / LPCM Audio / 2.0 / 48 kHz / 1536 kbps / 16-bit
********************PLAYLIST: 00002.MPLS********************
Код1
Total VideoTitle Codec Length Movie Size Disc Size Bitrate Bitrate Main Audio Track Secondary Audio Track----- ------ ------- -------------- -------------- ------- ------- ------------------ ---------------------00002.MPLS AVC 0:02:25 631 320 576 20 553 386 796 34,60 19,88 Dolby TrueHD 7.1 9098Kbps (48kHz/24-bit) LPCM 2.0 1536Kbps (48kHz/16-bit)
Код1
DISC INFO:
Disc Title: INXS Kick 30 anniversary 2017 Blu-ray Audio 1080i AVC Dolby Atmos 7.1Disc Size: 20 553 386 796 bytesProtection: AACSBD-Java: NoBDInfo: 0.5.8
PLAYLIST REPORT:
Name: 00002.MPLSLength: 0:02:25.979 (h:m:s.ms)Size: 631 320 576 bytesTotal Bitrate: 34,60 Mbps
VIDEO:
Codec Bitrate Description----- ------- -----------MPEG-4 AVC Video 19880 kbps 1080i / 29,970 fps / 16:9 / High Profile 4.1
AUDIO:
Codec Language Bitrate Description----- -------- ------- -----------Dolby TrueHD Audio English 9098 kbps 7.1 / 48 kHz / 9098 kbps / 24-bit (AC3 Embedded: 5.1 / 48 kHz / 640 kbps)LPCM Audio English 1536 kbps 2.0 / 48 kHz / 1536 kbps / 16-bit
FILES:
Name Time In Length Size Total Bitrate---- ------- ------ ---- -------------00000.M2TS 0:00:00.000 0:02:24.978 606 590 976 33 47200005.M2TS 0:02:24.978 0:00:01.000 24 729 600 197 639
CHAPTERS:
Number Time In Length Avg Video Rate Max 1-Sec Rate Max 1-Sec Time Max 5-Sec Rate Max 5-Sec Time Max 10Sec Rate Max 10Sec Time Avg Frame Size Max Frame Size Max Frame Time------ ------- ------ -------------- -------------- -------------- -------------- -------------- -------------- -------------- -------------- -------------- --------------1 0:00:00.000 0:02:24.978 20 016 kbps 27 697 kbps 00:00:27.027 23 359 kbps 00:00:26.760 22 537 kbps 00:00:09.676 83 466 bytes 227 554 bytes 00:01:07.9342 0:02:24.978 0:00:01.000 111 kbps 0 kbps 00:00:00.000 0 kbps 00:00:00.000 0 kbps 00:00:00.000 478 bytes 2 441 bytes 00:02:25.578
STREAM DIAGNOSTICS:
File PID Type Codec Language Seconds Bitrate Bytes Packets---- --- ---- ----- -------- -------------- -------------- ------------- -----00000.M2TS 4113 (0x1011) 0x1B AVC 144,911 20 026 362 741 303 1 973 99000000.M2TS 4352 (0x1100) 0x83 TrueHD eng (English) 144,911 9 173 166 160 412 1 006 46500000.M2TS 4353 (0x1101) 0x80 LPCM eng (English) 144,911 1 543 27 952 144 173 97600005.M2TS 4113 (0x1011) 0x1B AVC 0,901 145 16 308 11200005.M2TS 4352 (0x1100) 0x80 LPCM eng (English) 0,901 102 440 11 536 000 64 00000005.M2TS 4353 (0x1101) 0x80 LPCM eng (English) 0,901 102 440 11 536 000 64 000
QUICK SUMMARY:
Disc Title: INXS Kick 30 anniversary 2017 Blu-ray Audio 1080i AVC Dolby Atmos 7.1Disc Size: 20 553 386 796 bytesProtection: AACSBD-Java: NoPlaylist: 00002.MPLSSize: 631 320 576 bytesLength: 0:02:25.979Total Bitrate: 34,60 MbpsVideo: MPEG-4 AVC Video / 19880 kbps / 1080i / 29,970 fps / 16:9 / High Profile 4.1Audio: English / Dolby TrueHD Audio / 7.1 / 48 kHz / 9098 kbps / 24-bit (AC3 Embedded: 5.1 / 48 kHz / 640 kbps)Audio: English / LPCM Audio / 2.0 / 48 kHz / 1536 kbps / 16-bit
Источник (релизер): собственный рип
Об альбоме (сборнике)2017 marks a triumvirate of anniversaries for the legendary Australian rock band INXS. It’s now 40 years since they first formed the band; 30 years since Kick made them global superstars; and 20 years since the untimely passing of their iconic frontman and friend Michael Hutchence.
Housed in glorious DVD size fan-deluxe packaging, the 30th anniversary edition of Kick extends previous editions with additional B-sides, rare mixes and bonus tracks over 3CDs. In addition, it will feature the album mixed in Dolby Atmos® by producer Giles Martin and Sam Okell at Abbey Road Studios. The new mix appears on a Blu-ray disc along with all the promo videos. Dolby Atmos is an immersive sound technology that delivers the best listening experience on any device and surround sound set-up with a new dimension of clarity, fidelity and space, placing musical elements all around the listener.
“You can hear this album like you’ve never-before,” says Giles Martin of the new 30th-anniversary Edition of INXS’s seminal sixth album Kick. “You can hear Michael so close to you, you can hear his breath. You feel like you’re in the studio with the band. You have a record that’s 30 years old, but it’s been taken in a completely new direction and you can listen to it in a completely new way and it becomes new again. Great music and great songs, they don’t get old.”
“Classic, fabulous pop songs that jump out of the speakers, now more than ever before!“ Andrew Farriss of INXS says of Kick’s new edition. “The latest INXS vinyl cuts are an outstanding sonic achievement, especially the Kick album. I was truly amazed to hear INXS’ recordings sounding so incredibly fresh, clear and kick-ass, like vinyl on steroids…”-Blu-ray из 4-дискового бокса. раздача 3 CD здесь http://Torrentc/forum/viewtopic.php?t=5549139, там же и сканы. Буклет правда не сканировал, потому как не выдержит


[torrentc.info]_t_5549422.torrent
Торрент: Зарегистрирован ·  [ 2018-04-21 22:53 ] ·  a5f628438927ffbec16204da5e1d2e259aa8cbaa

103 KB

Статус: проверено
Скачан: 0 раз
Размер: 19.14 GB
Оценка: 
(Голосов: 0)
Сказали спасибо: 0  Спасибо
Похожие темы
[Профиль]    [ЛС]
Показать сообщения:    
Ответить на тему

Текущее время: Сегодня 05:52

Часовой пояс: GMT + 7



Вы не можете начинать темы
Вы не можете отвечать на сообщения
Вы не можете редактировать свои сообщения
Вы не можете удалять свои сообщения
Вы не можете голосовать в опросах
Вы не можете прикреплять файлы к сообщениям
Вы можете скачивать файлы