Аватар: Легенда о Корре / The Legend of Korra / Сезон: 4 / Серии: 1-13 из 13 (Майкл Данте ДиМартино / Michael Dante DiMartino, Брайан Кониецко / Bryan Konietzko) [2014, США, мультсериал, приключения, семейный, фэнтези, BDRemux 1080p] Dub (SDI Media)

Ответить на тему
Статистика раздачи [Обновить пиров]
Размер:  74.33 GB   |    Зарегистрирован:  9 месяцев 2 дня   |    Скачан:  0 раз

Полного источника не было: Никогда

 
   
 
 
 
Автор Сообщение

torrentc.info

Создавать темы 17-Апр-2018 01:38

[Цитировать]

Аватар: Легенда о Корре / The Legend of Korra
Год выхода: 2014
Страна: США
Жанр: мультсериал, приключения, семейный, фэнтези
Продолжительность: 00:24:00
Перевод: Профессиональный (дублированный) SDI Media
Режиссёр: Майкл Данте ДиМартино / Michael Dante DiMartino, Брайан Кониецко / Bryan Konietzko
В ролях: Джанет Вэрни, Дж.К. Симмонс, Ди Брэдли Бейкер, Мария Бэмфорд, Кирнан Шипка, Дарси Роуз Бернс, Лэнс Хенриксен, П.Дж. Бирн, Дэвид Фаустино, Данте Баско
Описание: Действие сериала разворачивается примерно через 70 лет после победы аватара Аанга над Лордом Огня в последней серии мультсериала «Аватар: Легенда об Аанге». Корра, уже овладевшая магией воды, земли и огня должна обучиться последнему элементу — магии воздуха. В этом ей может помочь только сын Аанга и Катары — Тензин. Корра живёт в «Республиканском городе». Республиканский город — это место, где вместе живут люди всех наций. Героям мультсериала предстоит борьба с преступностью и с готовящимся восстанием против магов.
Доп. информация: Моя благодарность за предоставленный Источник: Torrentc BluRay REMUX AVC DTS-HD MA 5.1-EPSiLON Illusivi. Дубляж из этой http://Torrentc/forum/viewtopic.php?t=5200112 раздачи.
Сэмпл: http://sendfile.su/1404964
Качество: BDRemux 1080p
Формат файла: MKV
Видео: MPEG-4 AVC/H.264, 1920x1080 (16:9), 23,976 fps, ~32000 kb/s
Аудио 1: Русский, AC3, 48 kHz, 2.0, 192kbps (Дубляж [SDI Media])
Аудио 2: Английский, DTS, 48 kHz, 5.1, 1509kbps
Субтитры: Английские

Список серий

01 - После стольких лет / After All These Years
02 - Одинокая Корра / Korra Alone
03 - Коронация / The Coronation
04 - Призыв / The Calling
05 - Враг у ворот / Enemy at the Gates
06 - Битва за Заофу / Battle of Zaofu
07 - Воссоединение / Reunion
08 - Воспоминания / Remembrances
09 - По ту сторону зарослей / Beyond the Wilds
10 - Операция Бейфонг / Operation Beifong
11 - Гамбит Кувиры / Kuvira's Gambit
12 - День Колосса / Day of the Colossus
13 - Последнее противостояние / The Last Stand

MediaInfo

Complete name : ..........................The.Legend.of.Korra.s04e01.BDRemux.mkv
Format : Matroska
Format version : Version 4 / Version 2
File size : 5.68 GiB
Duration : 22 min 50 s
Overall bit rate mode : Variable
Overall bit rate : 35.6 Mb/s
Encoded date : UTC 2018-03-10 05:34:14
Writing application : mkvmerge v21.0.0 ('Tardigrades Will Inherit The Earth') 64-bit
Writing library : libebml v1.3.5 + libmatroska v1.4.8
Video
ID : 1
Format : AVC
Format/Info : Advanced Video Codec
Format profile : High@L4.1
Format settings : CABAC / 4 Ref Frames
Format settings, CABAC : Yes
Format settings, ReFrames : 4 frames
Codec ID : V_MPEG4/ISO/AVC
Duration : 22 min 50 s
Bit rate mode : Variable
Bit rate : 32.6 Mb/s
Maximum bit rate : 40.0 Mb/s
Width : 1 920 pixels
Height : 1 080 pixels
Display aspect ratio : 16:9
Frame rate mode : Constant
Frame rate : 23.976 (24000/1001) FPS
Color space : YUV
Chroma subsampling : 4:2:0
Bit depth : 8 bits
Scan type : Progressive
Bits/(Pixel*Frame) : 0.656
Stream size : 5.21 GiB (92%)
Title : MPEG-4 AVC Video / ~33070 kbps / 1080p / 23.976 fps / 16:9 / High Profile 4.1
Language : English
Default : Yes
Forced : No
Audio #1
ID : 2
Format : AC-3
Format/Info : Audio Coding 3
Codec ID : A_AC3
Duration : 22 min 50 s
Bit rate mode : Constant
Bit rate : 192 kb/s
Channel(s) : 2 channels
Channel positions : Front: L R
Sampling rate : 48.0 kHz
Frame rate : 31.250 FPS (1536 SPF)
Bit depth : 16 bits
Compression mode : Lossy
Stream size : 31.4 MiB (1%)
Title : SDI Media
Language : Russian
Service kind : Complete Main
Default : Yes
Forced : No
Audio #2
ID : 3
Format : DTS
Format/Info : Digital Theater Systems
Format profile : MA / Core
Codec ID : A_DTS
Duration : 22 min 50 s
Bit rate mode : Variable / Constant
Bit rate : 2 768 kb/s / 1 509 kb/s
Channel(s) : 6 channels
Channel positions : Front: L C R, Side: L R, LFE
Sampling rate : 48.0 kHz
Frame rate : 93.750 FPS (512 SPF)
Bit depth : 24 bits
Compression mode : Lossless / Lossy
Stream size : 452 MiB (8%)
Title : DTS-HD Master Audio / 5.1 / 48 kHz / ~2800 kbps / 24-bit
Language : English
Default : No
Forced : No
Text
ID : 4
Format : PGS
Muxing mode : zlib
Codec ID : S_HDMV/PGS
Codec ID/Info : Picture based subtitle format used on BDs/HD-DVDs
Duration : 22 min 5 s
Bit rate : 60.9 kb/s
Count of elements : 796
Stream size : 9.63 MiB (0%)
Language : English
Default : No
Forced : No
Menu
00:00:00.000 : en:Chapter 1
00:08:54.451 : en:Chapter 2
00:14:31.162 : en:Chapter 3
00:22:19.255 : en:Chapter 4

Скриншоты

[url=tracker.php?g=foreign_serials&nm=The%20Legend%20of%20Korra]Предыдущие и альтернативные раздачи[/url]


[torrentc.info]_t_5532196.torrent
Торрент: Зарегистрирован ·  [ 2018-04-17 01:36 ] ·  d70ac4f08352de2283fde235df39e8ead985dde0

745 KB

Статус: проверено
Скачан: 0 раз
Размер: 74.33 GB
Оценка: 
(Голосов: 0)
Сказали спасибо: 0  Спасибо
Похожие темы
[Профиль]    [ЛС]
Показать сообщения:    
Ответить на тему

Текущее время: Сегодня 05:52

Часовой пояс: GMT + 7



Вы не можете начинать темы
Вы не можете отвечать на сообщения
Вы не можете редактировать свои сообщения
Вы не можете удалять свои сообщения
Вы не можете голосовать в опросах
Вы не можете прикреплять файлы к сообщениям
Вы можете скачивать файлы