Древние пришельцы / Ancient Aliens / Сезон: 9 / Серии: 1-12 из 12 (Кевин Бёрнс / Kevin Burns) [2014, Документальный, научно-популярный, BDRip-AVC] H2

Ответить на тему
Статистика раздачи [Обновить пиров]
Размер:  6.2 GB   |    Зарегистрирован:  7 месяцев 25 дней   |    Скачан:  0 раз

Полного источника не было: Никогда

 
   
 
 
 
Автор Сообщение

torrentc.info

Создавать темы 15-Апр-2018 23:01

[Цитировать]

-Древние пришельцы | Ancient Aliens-- Год выхода: 2014
Выпущено: США, Prometheus Entertainment, A&E Television Networks, LLC.
Режиссер: Кевин Бёрнс / Kevin Burns
Жанр: Документальный, научно-популярный
Продолжительность: ~00:43:00
Перевод: Профессиональный (многоголосый закадровый) | H2
Описание: Возможно ли, что разумные формы жизни посетили Землю тысячи лет назад, принеся с собой технологии кардинально повлиявшие на ход истории и развития человечества? Теория "древних пришельцев", опубликованная в 1968 году в бестселлере Эриха фон Дэникена "Колесницы богов", пошатнула представления людей об общеизвестном прогрессе человечества. Древние пещерные рисунки странных существ, остатки взлётно-посадочных полос в Перу, индийские тексты, описывающие "летающие машины богов"... вот лишь некоторые необычные археологические артефакты на которые ссылается Дэникен в качестве доказательств того, что "древние астронавты" были хорошо известны нашим предкам... В сериале рассказывается о разнообразных свидетельствах, что Землю посещали инопланетяне. Эта история охватывает 75 миллионов лет: от эры динозавров и Древнего Египта до странных небесных явлений в наши дни.
Качество: BDRip-AVC
Формат файла: MKV
Видео: AVC, 720x406, 23.976 fps, ~1770 kbps
Аудио: Русский (AC3, 48 kHz, 2 ch, 192 kbps); Английский (AAC, 48 kHz, 2 ch, 128 kbps)
Субтитры: Английские
Навигация по главам: есть
Сэмпл
BDRip 720p | BDRip 1080p
Wilmots
[spoiler="Список выпусков/серий">

"]Запись и сведение: Wilmots[spoiler="Список выпусков/серий

01. [url=https://en.wikipedia.org/wiki/Ancient_Aliens#Season_9_(2014%E2%80%9315)]Запретные пещеры / Forbidden Caves[/url]
Врата в другие измерения? Скрытые жилища? Тайные своды знаний? С древнейших времён пещеры были источником великих тайн, а что, если в самых тёмных уголках нашей планеты кроются древние секреты?
Что, если в их глубинах нам удастся найти следы пребывания инопланетных гостей?
02. Тайны Сфинкса / Mysteries of the Sphinx
Его происхождение неизвестно, он хранит свои секреты уже тысячи лет. Возможно, он хранит информацию и о нашем существовании. Большой сфинкс в Гизе - один из самых загадочных памятников на Земле.
Разгадав его тайну, сможем ли мы найти подтверждение того, что наши предки контактировали с пришельцами?
03. Пришельцы среди нас / Aliens Among Us
За каждым движением следят, каждый разговор записывается, а каждая тайна раскрывается. С развитием технологий информация обо всём и обо всех становится всё более доступной.
Неужели в этом веке технологий мы должны думать не только о том, кто за нами следит..., но и откуда...
04. Фактор гениальности / The Genius Factor
Теория относительности Эйнштейна, электрическая лампочка Эдисона, периодическая таблица Менделеева... Многие гении признавались, что самые лучшие идеи приходили к ним в видениях.
05. Секреты мумий / Secrets of the Mummies
Сторонники теории палеоконтакта утверждают, что мумификация мертвых в разных культурах по всему миру - не совпадение, а доказательство того, что в древности на Земле побывали инопланетяне.
06. Воскрешения пришельцев / Alien Resurrections
Истории бессмертия, мёртвые встали из могил, и о жизни после смерти из первых рук. История полна чудесных воскрешений, но были ли такие кто вернулся из мёртвых? Если так, могли ли им помочь пришельцы?
07. Послания из космоса / Alien Messages
В самых разных уголках нашей планеты находят таинственные символы... На полях фермеров появляется двоичный код... Географические совпадения, не поддающиеся объяснению...
Представьте, что в разных точках планеты кем-то были оставлены послания, скрытые в древних текстах, символах, и сооружениях. А что если их оставили для нас внеземные существа?
08. Всемирный потоп / The Great Flood
Это предание существует в самых разных культурах по всему миру: боги насылают потоп, чтобы наказать людей за непослушание и нечестивые поступки.
09. Пришельцы и Гражданская война / Aliens and the Civil War
Гражданская война едва не уничтожила великий эксперимент под названием Соединенные Штаты Америки. Возможно, республику удалось сохранить благодаря вмешательству инопланетных сил?
10. Скрытые пирамиды / Hidden Pyramids
Загадочные строения, возможно тысячи таких строений... Памятники, обладающие тайными силами... Чудеса архитектуры, способные изменить наши представления о прошлом...
Огромные пирамиды встречаются по всей земле, некоторые такие старые, что их происхождение неизвестно. Кое-кто считает, что существуют тысячи других, скрытых в океанах, джунглях, в песках пустынь.
И если мы найдём их, они откроют нам истину о нашем далёком прошлом.
11. Бесследно исчезнувшие / The Vanishings
Исчезнувшее племя... Таинственный покинутый город... Целая культура пропавшая с лица Земли... История насчитывает ряд массовых исчезновений не имеющих объяснений. Могло ли с этими людьми случиться что-то ужасное?
Или их забрали создания из других миров?
12. Инопланетный заговор / The Alien Agenda
Внезапно исчезнувшая цивилизация... Утрата накопленных за века знаний... Необъяснимый отказ самого мощного в мире оружия... Что, если инопланетяне вмешивались в ключевые моменты истории, чтобы направлять прогресс человечества?

MediaInfo

GeneralUnique ID : 170717695495472450719546469690497905721 (0x806F083CE49227BC24E15A296DC13439)Complete name : ancient.aliens.s09e07.alien.messages.bdrip.x264.mkvFormat : MatroskaFormat version : Version 4 / Version 2File size : 647 MiBDuration : 43 min 14 sOverall bit rate : 2 092 kb/sEncoded date : UTC 2018-03-11 10:54:34Writing application : mkvmerge v21.0.0 ('Tardigrades Will Inherit The Earth') 64-bitWriting library : libebml v1.3.5 + libmatroska v1.4.8
VideoID : 1Format : AVCFormat/Info : Advanced Video CodecFormat profile : High@L3.1Format settings : CABAC / 5 Ref FramesFormat settings, CABAC : YesFormat settings, ReFrames : 5 framesCodec ID : V_MPEG4/ISO/AVCDuration : 43 min 14 sBit rate : 1 770 kb/sWidth : 720 pixelsHeight : 406 pixelsDisplay aspect ratio : 16:9Frame rate mode : ConstantFrame rate : 23.976 (24000/1001) FPSColor space : YUVChroma subsampling : 4:2:0Bit depth : 8 bitsScan type : ProgressiveBits/(Pixel*Frame) : 0.252Stream size : 547 MiB (85%)Writing library : x264 core 148 r2579 73ae2d1Encoding settings : cabac=1 / ref=5 / deblock=1:-2:-2 / analyse=0x3:0x113 / me=umh / subme=8 / psy=1 / psy_rd=1.00:0.00 / mixed_ref=1 / me_range=16 / chroma_me=1 / trellis=1 / 8x8dct=1 / cqm=0 / deadzone=21,11 / fast_pskip=1 / chroma_qp_offset=-2 / threads=12 / lookahead_threads=2 / sliced_threads=0 / nr=0 / decimate=1 / interlaced=0 / bluray_compat=0 / constrained_intra=0 / bframes=3 / b_pyramid=2 / b_adapt=2 / b_bias=0 / direct=3 / weightb=1 / open_gop=0 / weightp=2 / keyint=240 / keyint_min=24 / scenecut=40 / intra_refresh=0 / rc_lookahead=50 / rc=crf / mbtree=1 / crf=19.0 / qcomp=0.60 / qpmin=0 / qpmax=69 / qpstep=4 / ip_ratio=1.40 / aq=1:0.70Default : YesForced : NoColor range : LimitedMatrix coefficients : BT.709
Audio #1ID : 2Format : AC-3Format/Info : Audio Coding 3Codec ID : A_AC3Duration : 43 min 14 sBit rate mode : ConstantBit rate : 192 kb/sChannel(s) : 2 channelsChannel positions : Front: L RSampling rate : 48.0 kHzFrame rate : 31.250 FPS (1536 SPF)Bit depth : 16 bitsCompression mode : LossyStream size : 59.4 MiB (9%)Language : RussianService kind : Complete MainDefault : YesForced : No
Audio #2ID : 3Format : AACFormat/Info : Advanced Audio CodecFormat profile : LCCodec ID : A_AAC-2Duration : 43 min 14 sBit rate : 128 kb/sChannel(s) : 2 channelsChannel positions : Front: L RSampling rate : 48.0 kHzFrame rate : 46.875 FPS (1024 SPF)Compression mode : LossyDelay relative to video : 9 msStream size : 39.6 MiB (6%)Language : EnglishDefault : NoForced : No
TextID : 4Format : UTF-8Codec ID : S_TEXT/UTF8Codec ID/Info : UTF-8 Plain TextDuration : 43 min 3 sBit rate : 99 b/sCount of elements : 605Stream size : 31.4 KiB (0%)Language : EnglishDefault : NoForced : No
Menu00:00:00.000 : en:00:00:00.00000:01:38.348 : en:00:01:38.34800:09:34.324 : en:00:09:34.32400:17:28.339 : en:00:17:28.33900:24:57.204 : en:00:24:57.20400:30:42.257 : en:00:30:42.25700:36:38.113 : en:00:36:38.113

Скриншоты



[torrentc.info]_t_5532620.torrent
Торрент: Зарегистрирован ·  [ 2018-04-15 22:57 ] ·  301ba4cc27ebe2b97f972952bc9f81eede7d67ec

17 KB

Статус: проверено
Скачан: 0 раз
Размер: 6.2 GB
Оценка: 
(Голосов: 0)
Сказали спасибо: 0  Спасибо
Похожие темы
[Профиль]    [ЛС]
Показать сообщения:    
Ответить на тему

Текущее время: Сегодня 16:32

Часовой пояс: GMT + 7



Вы не можете начинать темы
Вы не можете отвечать на сообщения
Вы не можете редактировать свои сообщения
Вы не можете удалять свои сообщения
Вы не можете голосовать в опросах
Вы не можете прикреплять файлы к сообщениям
Вы можете скачивать файлы