(Ambient/Dark/Neoclassical/Sympho) [CD] Chaostar - The Undivided Light - 2018, FLAC (image+.cue), lossless

Ответить на тему
Статистика раздачи [Обновить пиров]
Размер:  262 MB   |    Зарегистрирован:  6 месяцев 4 дня   |    Скачан:  0 раз

Полного источника не было: Никогда

 
   
 
 
 
Автор Сообщение

torrentc.info

Создавать темы 13-Апр-2018 21:58

[Цитировать]

[img]https://i105.fastpic.ru/big/2018/0405/aa/dca85460e7...f9c6aa.png[/img]
Жанр: Ambient/Dark/Neoclassical/Sympho Носитель: CD
Страна-производитель диска (релиза): Germany Год издания: 2018
Страна исполнителя (группы): Greece Аудиокодек: FLAC (*.flac)
Тип рипа: image+.cue Битрейт аудио: lossless
Источник (релизер): ungern666 Наличие сканов в содержимом раздачи: да

2018: The Undivided Light

[img=right]https://i105.fastpic.ru/big/2018/0405/c9/5fa8af1ee9...46f6c9.jpg[/img]
Издатель (лейбл): Season Of Mist
Номер по каталогу: SOM 437D
Продолжительность: 42:29
01. Tazama Jua 03:48
02. Blutbad 04:25
03. Stones And Dust 04:59
04. The Undivided Light 05:11
05. Mέμνησο 06:07
06. Silent Yard 10:51
07. Ying & Yang 07:09

Лог создания рипа

Exact Audio Copy V1.1 from 23. June 2015
EAC extraction logfile from 4. April 2018, 21:58
Chaostar / The Undivided Light
Used drive : HP DVD Writer 1170d Adapter: 1 ID: 1
Read mode : SecureUtilize accurate stream : YesDefeat audio cache : YesMake use of C2 pointers : No
Read offset correction : 6Overread into Lead-In and Lead-Out : NoFill up missing offset samples with silence : YesDelete leading and trailing silent blocks : NoNull samples used in CRC calculations : YesUsed interface : Native Win32 interface for Win NT & 2000
Used output format : User Defined EncoderSelected bitrate : 1024 kBit/sQuality : HighAdd ID3 tag : NoCommand line compressor : C:\Program Files (x86)\Exact Audio Copy\Flac\flac.exeAdditional command line options : -V -8 -T "Date=%year%" -T "Genre=%genre%" %source%
TOC of the extracted CD
Track | Start | Length | Start sector | End sector --------------------------------------------------------- 1 | 0:00.00 | 3:47.55 | 0 | 17079 2 | 3:47.55 | 4:25.09 | 17080 | 36963 3 | 8:12.64 | 4:59.19 | 36964 | 59407 4 | 13:12.08 | 5:10.58 | 59408 | 82715 5 | 18:22.66 | 6:07.15 | 82716 | 110255 6 | 24:30.06 | 10:50.47 | 110256 | 159052 7 | 35:20.53 | 7:09.10 | 159053 | 191237
Range status and errors
Selected range
Filename C:\EAC\ungern666\Chaostar - The Undivided Light.wav
Peak level 97.7 % Extraction speed 6.1 X Range quality 99.9 % Test CRC 871C9008 Copy CRC 871C9008 Copy OK
No errors occurred
AccurateRip summary
Track 1 not present in databaseTrack 2 not present in databaseTrack 3 not present in databaseTrack 4 not present in databaseTrack 5 not present in databaseTrack 6 not present in databaseTrack 7 not present in database
None of the tracks are present in the AccurateRip database
End of status report
---- CUETools DB Plugin V2.1.6
[CTDB TOCID: qieMX5_Dyo88H6heO1wvfQ.FG90-] foundSubmit result: qieMX5_Dyo88H6heO1wvfQ.FG90- has been confirmedTrack | CTDB Status 1 | (1/1) Accurately ripped 2 | (1/1) Accurately ripped 3 | (1/1) Accurately ripped 4 | (1/1) Accurately ripped 5 | (1/1) Accurately ripped 6 | (1/1) Accurately ripped 7 | (1/1) Accurately ripped
==== Log checksum 3690149E3251DC4BD8BFEF9F101E8D8C5585DDBD6F82B8FB33F279CFE30843C2 ====
- -Материал предназначен для ознакомления!


[torrentc.info]_t_5544673.torrent
Торрент: Зарегистрирован ·  [ 2018-04-13 21:52 ] ·  aaad4e569a7cad937164c7a36bf044187170499f

12 KB

Статус: проверено
Скачан: 0 раз
Размер: 262 MB
Оценка: 
(Голосов: 0)
Сказали спасибо: 0  Спасибо
Похожие темы
[Профиль]    [ЛС]
Показать сообщения:    
Ответить на тему

Текущее время: Сегодня 01:20

Часовой пояс: GMT + 7



Вы не можете начинать темы
Вы не можете отвечать на сообщения
Вы не можете редактировать свои сообщения
Вы не можете удалять свои сообщения
Вы не можете голосовать в опросах
Вы не можете прикреплять файлы к сообщениям
Вы можете скачивать файлы