Светлана Лобода (LOBODA) - H2LO [2018, Pop, DVB]

Reply to topic
DL-List and Torrent activity [Update пиров]
Size:  2.91 GB   |    Registered:  1 year 10 months   |    Completed:  0 times

Seeder not seen: Never

 
   
 
 
 
Author Message

Мых

Post 03-Apr-2018 23:44

[Quote]

Светлана Лобода (LOBODA) - H2LO (концерт)
Страна: Украина
Жанр: Pop
Продолжительность: 01:41:45
Год выхода: 2018
Треклист: спасибо zoom2010
1. Интро
2. Невеста
3. Птица
4. Текила любовь
5. Постой, мужчина
6. Интро
7. К чёрту любовь
8. Танцую волосами
9. Жарко (feat. Monatik)
10. Париж
11. Облака
12. Не нужна
13. Город под запретом
14. Облиш
15. Ангелок
16. Не люби
17. Как Челентано (feat. Артур Пирожков)
18. Be My Valentine (Remix)
19. Твои глаза
20. Случайная
21. Стерва
22. 40 градусов
23. Революция
24. Пора домой
25. Парень
Источник: собственный рип
Описание: LOBODA - украинская певица, ведущая, автор песен, дизайнер собственной марки «F*ck' n' macho», бывшая солистка группы «ВИА Гра», заслуженная артистка Украины.
Качество: DVB
Формат файла: MPEG-TS
Видео кодек: MPEG2
Аудио кодек: MPEG1 L2
Видео: MPEG Video Version 2, 704x576, 25 fps, 3704 kb/s
Аудио: MPEG Audio (Version 1) (Layer 2), 2 Ch, 48 KHz, 192 kbps

MediaInfo

Общее
Идентификатор : 1 (0x1)
Полное имя : D:\TR\LOBODA - H2LO_bySat.ts
Формат файла : MPEG-TS
Размер файла : 2,91 Гбайт
Продолжительность : 1 ч. 41 м.
Режим общего битрейта : Переменный
Общий поток : 4101 Кбит/сек
Видео
Идентификатор : 7311 (0x1C8F)
Идентификатор меню : 1 (0x1)
Формат файла : MPEG Video
Версия формата : Version 2
Профиль формата : Main@Main
Параметр BVOP формата : Да
Параметр матрицы формата : Выборочная
Параметр GOP формата : Variable
Format_Settings_PictureStructure : Frame
Идентификатор кодека : 2
Продолжительность : 1 ч. 41 м.
Вид битрейта : Переменный
Битрейт : 3704 Кбит/сек
Максимальный битрейт : 15,0 Мбит/сек
Ширина : 704 пикселя
Высота : 576 пикселей
Соотношение сторон : 16:9
Частота кадров : 25,000 кадров/сек
Стандарт вещания : PAL
Цветовое пространство : YUV
Субдискретизация насыщенности : 4:2:0
Битовая глубина : 8 бит
Тип развёртки : Чересстрочная
Порядок развёртки : Верхнее поле первое
Метод сжатия : С потерями
Бит/(Пиксели*Кадры) : 0.365
Временной код первого кадра : 00:00:00:00
Оригинал временного кода : Group of pictures header
Размер потока : 2,63 Гбайт (90%)
Аудио
Идентификатор : 7312 (0x1C90)
Идентификатор меню : 1 (0x1)
Формат файла : MPEG Audio
Версия формата : Version 1
Профиль формата : Layer 2
Идентификатор кодека : 3
Продолжительность : 1 ч. 41 м.
Вид битрейта : Постоянный
Битрейт : 192 Кбит/сек
Каналы : 2 канала
Частота : 48,0 КГц
Метод сжатия : С потерями
Размер потока : 140 Мбайт (5%)
Язык : Ukrainian
Текст
Идентификатор : 7314 (0x1C92)-800
Идентификатор меню : 1 (0x1)
Формат файла : Teletext
Язык : Ukrainian
Меню
Идентификатор : 256 (0x100)
Идентификатор меню : 1 (0x1)
Продолжительность : 1 ч. 41 м.
Список : 7311 (0x1C8F) (MPEG Video) / 7312 (0x1C90) (MPEG Audio, Ukrainian) / 7314 (0x1C92) ()
Язык : / Ukrainian

Скриншоты



[geo-torrent.biz]_t_5531895.torrent
Torrent: Registered ·  [ 2018-04-03 23:43 ] ·  f00e96dd9845148da88c16a99c4558a70da805ad

15 KB

Status: checked
Completed: 0 times
Size: 2.91 GB
Rating: 
(Votes: 0)
Say thanks: 0  Thanks
Похожие темы
[Profile]    [PM]
Display posts from previous:    
Reply to topic

The time now is: Today 15:11

All times are GMT + 7 Hours



You cannot post new topics in this forum
You cannot reply to topics in this forum
You cannot edit your posts in this forum
You cannot delete your posts in this forum
You cannot vote in polls in this forum
You cannot attach files in this forum
You can download files in this forum