Далласский клуб покупателей / Dallas Buyers Club (Жан-Марк Валле / Jean-Marc Vallee) [2013, драма, биография, история, HDRip] Dub + AVO (С. Визгунов)

Ответить на тему
Статистика раздачи [Обновить пиров]
Размер:  767 MB   |    Зарегистрирован:  7 месяцев 16 дней   |    Скачан:  0 раз

Полного источника не было: Никогда

 
   
 
 
 
Автор Сообщение

torrentc.info

Создавать темы 02-Апр-2018 22:48

[Цитировать]

Далласский клуб покупателей-«Dare to Live»- Оригинальное Название: Dallas Buyers Club
Год Выпуска: 2013 г.
Cтрана: США
Жанр: драма, биография, история
Продолжительность: 01:56:57-Перевод 1: Профессиональный (дублированный) [Лицензия]
Перевод 2: Авторский (одноголосый, закадровый) [С. Визгунов]-Режиссер: Жан-Марк Валле
В ролях: Мэттью МакКонахи, Джаред Лето, Дженнифер Гарнер, Дэнис О’Хэйр, Стив Зан, Майкл О’Нил, Даллас Робертс, Гриффин Данн, Кевин О. Ранкин, Донна ДюПлантье-Описание:
Реальная история Рона Вудруфа, техасского электрика, у которого в 1986 году обнаружили СПИД. Тогда врачи отвели ему всего полгода, но он не пожелал смириться со смертным приговором и сумел продлить свою жизнь, принимая нетрадиционные лекарства, а затем наладил подпольный и прибыльный бизнес по продаже их другим больным.
-Источник: BDRip 1080p [CHD]
Качество: HDRip
Формат файла: MP4
Видео кодек: H.264
Аудио кодек: AAC
Видео: MPEG-4 AVC Video (H.264) / 480x208 / 653 kbps / 23.976 fps / 40:17 / Main Profile 3.0
Аудио 1: AAC, 2 channels, 48 kHz, 128 kbps
Аудио 2: AAC, 2 channels, 48 kHz, 128 kbps
-

Как переключать дорожки

1. запускаем видео файл
2. в любой момент жмём кнопку ? (открывается панель управления)
3. там выбираем звуковые параметры d
4. жмём кнопку Х (осуществляется переключение звуковой дорожки, при этом на экране отражается ее номер - 1, 2)
* проигрывается на PSP с любой прошивкой *
-

MediaInfo

General
Complete name                       : D:\PSP\Раздачи\Фильмы\Далласский.клуб.покупателей.2013.HDRip.mp4
Format                              : MPEG-4
Format profile                      : Base Media
Codec ID                            : isom
File size                           : 767 MiB
Duration                            : 1h 56mn
Overall bit rate                    : 917 Kbps
Encoded date                        : UTC 2014-02-02 20:29:11
Tagged date                         : UTC 2014-02-02 20:29:11
Writing application                 : XviD4PSP 6.0 / 54.29.105
Video
ID                                  : 1
Format                              : AVC
Format/Info                         : Advanced Video Codec
Format profile                      : Main@L3.0
Format settings, CABAC              : Yes
Format settings, ReFrames           : 3 frames
Codec ID                            : avc1
Codec ID/Info                       : Advanced Video Coding
Duration                            : 1h 56mn
Bit rate                            : 653 Kbps
Width                               : 480 pixels
Height                              : 208 pixels
Display aspect ratio                : 2.35:1
Frame rate mode                     : Variable
Frame rate                          : 23.976 fps
Minimum frame rate                  : 23.965 fps
Maximum frame rate                  : 23.987 fps
Color space                         : YUV
Chroma subsampling                  : 4:2:0
Bit depth                           : 8 bits
Scan type                           : Progressive
Bits/(Pixel*Frame)                  : 0.273
Stream size                         : 547 MiB (71%)
Writing library                     : x264 core 130 r2273 b3065e6
Encoding settings                   : cabac=1 / ref=3 / deblock=1:-2:-1 / analyse=0x1:0x131 / me=umh / subme=9 / psy=1 / psy_rd=1.00:0.20 / mixed_ref=1 / me_range=16 / chroma_me=1 / trellis=2 / 8x8dct=0 / cqm=0 / deadzone=21,11 / fast_pskip=0 / chroma_qp_offset=-3 / threads=12 / lookahead_threads=1 / sliced_threads=0 / nr=0 / decimate=0 / interlaced=0 / bluray_compat=0 / constrained_intra=0 / bframes=3 / b_pyramid=0 / b_adapt=2 / b_bias=0 / direct=1 / weightb=1 / open_gop=0 / weightp=2 / keyint=250 / keyint_min=23 / scenecut=40 / intra_refresh=0 / rc=cqp / mbtree=0 / qp=17 / ip_ratio=1.40 / pb_ratio=1.30 / aq=0
Encoded date                        : UTC 2014-02-02 20:29:11
Tagged date                         : UTC 2014-02-02 20:29:11
Audio #1
ID                                  : 2
Format                              : AAC
Format/Info                         : Advanced Audio Codec
Format profile                      : LC
Codec ID                            : 40
Duration                            : 1h 56mn
Bit rate mode                       : Constant
Bit rate                            : 128 Kbps
Channel(s)                          : 2 channels
Channel positions                   : Front: L R
Sampling rate                       : 48.0 KHz
Compression mode                    : Lossy
Delay relative to video             : 83ms
Stream size                         : 107 MiB (14%)
Language                            : Russian
Encoded date                        : UTC 2014-02-02 20:29:11
Tagged date                         : UTC 2014-02-02 20:29:11
Audio #2
ID                                  : 3
Format                              : AAC
Format/Info                         : Advanced Audio Codec
Format profile                      : LC
Codec ID                            : 40
Duration                            : 1h 56mn
Bit rate mode                       : Constant
Bit rate                            : 128 Kbps
Channel(s)                          : 2 channels
Channel positions                   : Front: L R
Sampling rate                       : 48.0 KHz
Compression mode                    : Lossy
Delay relative to video             : 83ms
Stream size                         : 107 MiB (14%)
Language                            : Russian
Encoded date                        : UTC 2014-02-02 20:29:11
Tagged date                         : UTC 2014-02-02 20:29:11
-

Скриншоты


- -Если вы скачали данный релиз и хотите выложить его на другом ресурсе -
пожалуйста, указывайте первоисточник
- R.G. Video Games World


[torrentc.info]_t_4983325.torrent
Торрент: Зарегистрирован ·  [ 2018-04-02 22:47 ] ·  86cba58b12e712a2b8878f8542ea3f147cca38ab

15 KB

Статус: проверено
Скачан: 0 раз
Размер: 767 MB
Оценка: 
(Голосов: 0)
Сказали спасибо: 0  Спасибо
Похожие темы
[Профиль]    [ЛС]
Показать сообщения:    
Ответить на тему

Текущее время: Сегодня 22:42

Часовой пояс: GMT + 7



Вы не можете начинать темы
Вы не можете отвечать на сообщения
Вы не можете редактировать свои сообщения
Вы не можете удалять свои сообщения
Вы не можете голосовать в опросах
Вы не можете прикреплять файлы к сообщениям
Вы можете скачивать файлы