(Avant-rock) [CDs, web] David Thomas, P. O. Jorgens And The Two Pale Boys · коллекция (4 альбома, 1986–2017), FLAC (tracks+.cue), lossless

Ответить на тему
Статистика раздачи [Обновить пиров]
Размер:  957 MB   |    Зарегистрирован:  8 месяцев 12 дней   |    Скачан:  0 раз

Полного источника не было: Никогда

 
   
 
 
 
Автор Сообщение

torrentc.info

Создавать темы 28-Мар-2018 22:59

[Цитировать]

[url=https://en.wikipedia.org/wiki/David_Thomas_(musician)]David Thomas[/url] / коллекция

Жанр: avant-rock · Носители: CDs, web · Годы издания: 1986–2017
Страна группы: USA · Общая продолжительность: 03:02:58
Аудиокодек: FLAC (*.flac) · Тип рипа: tracks+.cue · Битрейт аудио: lossless
Источники: redacted.ch, qobuz.com · Сканов в раздаче почти нет
Коллекция в mp3
Треклист:

[1986 · TTRCD8667] Monster Walks The Winter Lake

01. My Theory Of Spontaneous Simultude / Red Tin Bus 3:05
02. What Happened To Me 2:49
03. Monster Walks The Winter Lake 11:18
04. Bicycle 4:22
05. Coffee Train 2:26
06. My Town 3:19
07. Monster Magee, King Of The Seas 2:17
08. Monster Thinks About The Good Days 3:41
09. What Happened To Me 2:40
Продолжительность: 00:35:56

Лог создания рипа

X Lossless Decoder version 20131102 (145.0)
XLD extraction logfile from 2013-12-25 09:52:16 -0500
David Thomas / Monster Walks the Winter Lake
Used drive : MATSHITA DVD-R UJ-8A8 (revision HA13)Media type : Pressed CD
Ripper mode : XLD Secure RipperDisable audio cache : OK for the drive with a cache less than 1375KiBMake use of C2 pointers : NORead offset correction : 102Max retry count : 20Gap status : Analyzed, Appended (except HTOA)
TOC of the extracted CD Track | Start | Length | Start sector | End sector --------------------------------------------------------- 1 | 00:00:00 | 03:04:70 | 0 | 13869 2 | 03:04:70 | 02:48:50 | 13870 | 26519 3 | 05:53:45 | 11:18:25 | 26520 | 77394 4 | 17:11:70 | 04:22:00 | 77395 | 97044 5 | 21:33:70 | 02:25:55 | 97045 | 107974 6 | 23:59:50 | 03:19:05 | 107975 | 122904 7 | 27:18:55 | 02:16:45 | 122905 | 133149 8 | 29:35:25 | 03:40:67 | 133150 | 149716 9 | 33:16:17 | 02:39:65 | 149717 | 161706
AccurateRip Summary (DiscID: 000d95ac-0062444e-7c086c09) Track 01 : OK (v1, confidence 2/2) Track 02 : OK (v1, confidence 2/2) Track 03 : OK (v1, confidence 2/2) Track 04 : OK (v1, confidence 2/2) Track 05 : OK (v1, confidence 2/2) Track 06 : OK (v1, confidence 2/2) Track 07 : OK (v1, confidence 2/2) Track 08 : OK (v1, confidence 2/2) Track 09 : OK (v1, confidence 2/2) ->All tracks accurately ripped.
All Tracks Album gain : 0.57 dB Peak : 1.000000 Statistics Read error : 0 Jitter error (maybe fixed) : 0 Retry sector count : 0 Damaged sector count : 0
Track 01 Filename : /Users/ho2075/Desktop/01 David Thomas - My Theory Of Spontaneous Simultude/ Red Thin Bus.flac Pre-gap length : 00:02:00
Track gain : 6.60 dB Peak : 0.999939 CRC32 hash (test run) : DA1E5211 CRC32 hash : DA1E5211 CRC32 hash (skip zero) : F2ABD9DC AccurateRip v1 signature : 13A933C6 AccurateRip v2 signature : C9078DED ->Accurately ripped (v1, confidence 2/2) Statistics Read error : 0 Jitter error (maybe fixed) : 0 Retry sector count : 0 Damaged sector count : 0
Track 02 Filename : /Users/ho2075/Desktop/02 David Thomas - What Happened To Me.flac
Track gain : 0.49 dB Peak : 0.999969 CRC32 hash (test run) : E92EEC6A CRC32 hash : E92EEC6A CRC32 hash (skip zero) : 0C8DF519 AccurateRip v1 signature : FF929744 AccurateRip v2 signature : 75759FD2 ->Accurately ripped (v1, confidence 2/2) Statistics Read error : 0 Jitter error (maybe fixed) : 0 Retry sector count : 0 Damaged sector count : 0
Track 03 Filename : /Users/ho2075/Desktop/03 David Thomas - Monster Walks The Winter Lake.flac
Track gain : 1.14 dB Peak : 1.000000 CRC32 hash (test run) : 27B997AC CRC32 hash : 27B997AC CRC32 hash (skip zero) : C80A57F8 AccurateRip v1 signature : 19CC9A2A AccurateRip v2 signature : A9B1E812 ->Accurately ripped (v1, confidence 2/2) Statistics Read error : 0 Jitter error (maybe fixed) : 0 Retry sector count : 0 Damaged sector count : 0
Track 04 Filename : /Users/ho2075/Desktop/04 David Thomas - Bicycle.flac Pre-gap length : 00:05:53
Track gain : 5.24 dB Peak : 0.586029 CRC32 hash (test run) : 35B780C5 CRC32 hash : 35B780C5 CRC32 hash (skip zero) : CAE071B3 AccurateRip v1 signature : B1D947CA AccurateRip v2 signature : 7478003E ->Accurately ripped (v1, confidence 2/2) Statistics Read error : 0 Jitter error (maybe fixed) : 0 Retry sector count : 0 Damaged sector count : 0
Track 05 Filename : /Users/ho2075/Desktop/05 David Thomas - Coffee Train.flac Pre-gap length : 00:04:00
Track gain : 1.55 dB Peak : 1.000000 CRC32 hash (test run) : 3A17B3D8 CRC32 hash : 3A17B3D8 CRC32 hash (skip zero) : 76185520 AccurateRip v1 signature : 7FA8F832 AccurateRip v2 signature : F24BB93D ->Accurately ripped (v1, confidence 2/2) Statistics Read error : 0 Jitter error (maybe fixed) : 0 Retry sector count : 0 Damaged sector count : 0
Track 06 Filename : /Users/ho2075/Desktop/06 David Thomas - My Town.flac
Track gain : -2.56 dB Peak : 1.000000 CRC32 hash (test run) : 9FECBC18 CRC32 hash : 9FECBC18 CRC32 hash (skip zero) : 61147742 AccurateRip v1 signature : 96D1D19E AccurateRip v2 signature : 0FD4149D ->Accurately ripped (v1, confidence 2/2) Statistics Read error : 0 Jitter error (maybe fixed) : 0 Retry sector count : 0 Damaged sector count : 0
Track 07 Filename : /Users/ho2075/Desktop/07 David Thomas - Monster Magee, King Of The Seas.flac
Track gain : 2.81 dB Peak : 0.589783 CRC32 hash (test run) : BD126976 CRC32 hash : BD126976 CRC32 hash (skip zero) : F9A3F3D6 AccurateRip v1 signature : 4DFE8FBA AccurateRip v2 signature : 934E3938 ->Accurately ripped (v1, confidence 2/2) Statistics Read error : 0 Jitter error (maybe fixed) : 0 Retry sector count : 0 Damaged sector count : 0
Track 08 Filename : /Users/ho2075/Desktop/08 David Thomas - Monster Thinks About The Good Days.flac Pre-gap length : 00:02:00
Track gain : -0.21 dB Peak : 0.915192 CRC32 hash (test run) : 220B5BBB CRC32 hash : 220B5BBB CRC32 hash (skip zero) : B1459D92 AccurateRip v1 signature : CBB80354 AccurateRip v2 signature : 17C9656F ->Accurately ripped (v1, confidence 2/2) Statistics Read error : 0 Jitter error (maybe fixed) : 0 Retry sector count : 0 Damaged sector count : 0
Track 09 Filename : /Users/ho2075/Desktop/09 David Thomas - What Happened To Me.flac Pre-gap length : 00:03:42
Track gain : 0.91 dB Peak : 0.999969 CRC32 hash (test run) : 74057A78 CRC32 hash : 74057A78 CRC32 hash (skip zero) : C98DB4D8 AccurateRip v1 signature : B3EE5B28 AccurateRip v2 signature : 5F64A721 ->Accurately ripped (v1, confidence 2/2) Statistics Read error : 0 Jitter error (maybe fixed) : 0 Retry sector count : 0 Damaged sector count : 0
No errors occurred
End of status report
-----BEGIN XLD SIGNATURE-----FsQEhO_vyQE7r6N_O_ZoveFn4Z9TAz7ggcP2lPUJL5Bu.eq70f6bjgB4WPGBsZya0pmjtsiAtPpJrLWQhsvYurKq6skYW5KP6oaZzxS-----END XLD SIGNATURE-----

Содержание индексной карты (.cue)

TITLE "Monster Walks The Winter Lake"PERFORMER "David Thomas"REM DATE "1986"REM DISCID 7C086C09REM REPLAYGAIN_ALBUM_GAIN 0.57 dBREM REPLAYGAIN_ALBUM_PEAK 1.000000FILE "01. My Theory Of Spontaneous Simultude, Red Thin Bus.flac" WAVE TRACK 01 AUDIO TITLE "My Theory Of Spontaneous Simultude / Red Thin Bus" FLAGS PRE REM REPLAYGAIN_TRACK_GAIN 6.60 dB REM REPLAYGAIN_TRACK_PEAK 0.999939 INDEX 01 00:00:00FILE "02. What Happened To Me.flac" WAVE TRACK 02 AUDIO TITLE "What Happened To Me" FLAGS PRE REM REPLAYGAIN_TRACK_GAIN 0.49 dB REM REPLAYGAIN_TRACK_PEAK 0.999969 INDEX 01 00:00:00FILE "03. Monster Walks The Winter Lake.flac" WAVE TRACK 03 AUDIO TITLE "Monster Walks The Winter Lake" FLAGS PRE REM REPLAYGAIN_TRACK_GAIN 1.14 dB REM REPLAYGAIN_TRACK_PEAK 1.000000 INDEX 01 00:00:00 TRACK 04 AUDIO TITLE "Bicycle" FLAGS PRE REM REPLAYGAIN_TRACK_GAIN 5.24 dB REM REPLAYGAIN_TRACK_PEAK 0.586029 INDEX 00 11:12:47FILE "04. Bicycle.flac" WAVE INDEX 01 00:00:00 TRACK 05 AUDIO TITLE "Coffee Train" FLAGS PRE REM REPLAYGAIN_TRACK_GAIN 1.55 dB REM REPLAYGAIN_TRACK_PEAK 1.000000 INDEX 00 04:18:00FILE "05. Coffee Train.flac" WAVE INDEX 01 00:00:00FILE "06. My Town.flac" WAVE TRACK 06 AUDIO TITLE "My Town" FLAGS PRE REM REPLAYGAIN_TRACK_GAIN -2.56 dB REM REPLAYGAIN_TRACK_PEAK 1.000000 INDEX 01 00:00:00FILE "07. Monster Magee, King Of The Seas.flac" WAVE TRACK 07 AUDIO TITLE "Monster Magee, King Of The Seas" FLAGS PRE REM REPLAYGAIN_TRACK_GAIN 2.81 dB REM REPLAYGAIN_TRACK_PEAK 0.589783 INDEX 01 00:00:00 TRACK 08 AUDIO TITLE "Monster Thinks About The Good Days" FLAGS PRE REM REPLAYGAIN_TRACK_GAIN -0.21 dB REM REPLAYGAIN_TRACK_PEAK 0.915192 INDEX 00 02:14:45FILE "08. Monster Thinks About The Good Days.flac" WAVE INDEX 01 00:00:00 TRACK 09 AUDIO TITLE "What Happened To Me" FLAGS PRE REM REPLAYGAIN_TRACK_GAIN 0.91 dB REM REPLAYGAIN_TRACK_PEAK 0.999969 INDEX 00 03:37:25FILE "09. What Happened To Me.flac" WAVE INDEX 01 00:00:00

[1996 · TK96CD145] Erewhon

01. Obsession 4:33
02. Planet Of Fools 2:59
03. Nowheresville 3:48
04. Fire 6:02
05. Lantern 3:22
06. Morbid Sky 5:44
07. Weird Cornfields 3:53
08. Kathleen 8:30
09. Highway 61 Revisited 11:09
Продолжительность: 00:50:00

Лог создания рипа

Exact Audio Copy V1.1 from 23. June 2015
EAC extraction logfile from 20. January 2017, 7:15
David Thomas And Two Pale Boys / Erewhon
Used drive : MATSHITADVD-RAM UJ8HC Adapter: 1 ID: 0
Read mode : SecureUtilize accurate stream : YesDefeat audio cache : YesMake use of C2 pointers : No
Read offset correction : 6Overread into Lead-In and Lead-Out : NoFill up missing offset samples with silence : YesDelete leading and trailing silent blocks : NoNull samples used in CRC calculations : YesUsed interface : Native Win32 interface for Win NT & 2000Gap handling : Appended to previous track
Used output format : User Defined EncoderSelected bitrate : 1024 kBit/sQuality : HighAdd ID3 tag : NoCommand line compressor : C:\Program Files (x86)\Exact Audio Copy\Flac\flac.exeAdditional command line options : -8 -e -V -T "ARTIST=%artist%" -T "TITLE=%title%" -T "ALBUM=%albumtitle%" -T "DATE=%year%" -T "TRACKNUMBER=%tracknr%" -T "GENRE=%genre%" -T "PERFORMER=%albuminterpret%" -T "COMPOSER=%composer%" %haslyrics%--tag-from-file=LYRICS="%lyricsfile%"%haslyrics% -T "ALBUMARTIST=%albumartist%" -T "DISCNUMBER=%cdnumber%" -T "TOTALDISCS=%totalcds%" -T "TOTALTRACKS=%numtracks%" -T "COMMENT=%comment%" %source% -o %dest%
TOC of the extracted CD
Track | Start | Length | Start sector | End sector --------------------------------------------------------- 1 | 0:00.00 | 4:33.02 | 0 | 20476 2 | 4:33.02 | 2:58.48 | 20477 | 33874 3 | 7:31.50 | 3:47.60 | 33875 | 50959 4 | 11:19.35 | 6:01.50 | 50960 | 78084 5 | 17:21.10 | 3:21.70 | 78085 | 93229 6 | 20:43.05 | 5:44.28 | 93230 | 119057 7 | 26:27.33 | 3:52.48 | 119058 | 136505 8 | 30:20.06 | 8:30.35 | 136506 | 174790 9 | 38:50.41 | 11:09.30 | 174791 | 224995 10 | 52:31.71 | 23:56.64 | 236396 | 344159
Track 1
Filename D:\PTH\David Thomas And Two Pale Boys - Erewhon (1996) CD FLAC\01 - Obsession.wav
Pre-gap length 0:00:02.00
Peak level 98.4 % Extraction speed 1.4 X Track quality 100.0 % Test CRC 864504DE Copy CRC 864504DE Accurately ripped (confidence 2) [2A8DDFF1] (AR v2) Copy OK
Track 2
Filename D:\PTH\David Thomas And Two Pale Boys - Erewhon (1996) CD FLAC\02 - Planet Of Fools.wav
Peak level 98.4 % Extraction speed 1.2 X Track quality 99.9 % Test CRC A543FB27 Copy CRC A543FB27 Accurately ripped (confidence 2) [D92BD6A4] (AR v2) Copy OK
Track 3
Filename D:\PTH\David Thomas And Two Pale Boys - Erewhon (1996) CD FLAC\03 - Nowheresville.wav
Peak level 98.4 % Extraction speed 1.6 X Track quality 100.0 % Test CRC 28188F63 Copy CRC 28188F63 Accurately ripped (confidence 2) [831A22BF] (AR v2) Copy OK
Track 4
Filename D:\PTH\David Thomas And Two Pale Boys - Erewhon (1996) CD FLAC\04 - Fire.wav
Peak level 88.6 % Extraction speed 1.8 X Track quality 100.0 % Test CRC 69526391 Copy CRC 69526391 Accurately ripped (confidence 2) [2C0BAA50] (AR v2) Copy OK
Track 5
Filename D:\PTH\David Thomas And Two Pale Boys - Erewhon (1996) CD FLAC\05 - Lantern.wav
Peak level 98.4 % Extraction speed 1.8 X Track quality 100.0 % Test CRC 03EF64BC Copy CRC 03EF64BC Accurately ripped (confidence 2) [AEF44F0A] (AR v2) Copy OK
Track 6
Filename D:\PTH\David Thomas And Two Pale Boys - Erewhon (1996) CD FLAC\06 - Morbid Sky.wav
Peak level 98.4 % Extraction speed 2.0 X Track quality 100.0 % Test CRC 761974D3 Copy CRC 761974D3 Accurately ripped (confidence 2) [49F7FD80] (AR v2) Copy OK
Track 7
Filename D:\PTH\David Thomas And Two Pale Boys - Erewhon (1996) CD FLAC\07 - Weird Cornfields.wav
Peak level 98.4 % Extraction speed 2.0 X Track quality 100.0 % Test CRC F163DA38 Copy CRC F163DA38 Accurately ripped (confidence 2) [4260BDF4] (AR v2) Copy OK
Track 8
Filename D:\PTH\David Thomas And Two Pale Boys - Erewhon (1996) CD FLAC\08 - Kathleen.wav
Peak level 97.5 % Extraction speed 2.3 X Track quality 100.0 % Test CRC 3D337102 Copy CRC 3D337102 Accurately ripped (confidence 2) [3094ED0D] (AR v2) Copy OK
Track 9
Filename D:\PTH\David Thomas And Two Pale Boys - Erewhon (1996) CD FLAC\09 - Highway 61 Revisited.wav
Peak level 98.4 % Extraction speed 2.6 X Track quality 100.0 % Test CRC 25D01AC5 Copy CRC 25D01AC5 Accurately ripped (confidence 2) [E2EA60DE] (AR v2) Copy OK
All tracks accurately ripped
No errors occurred
End of status report
---- CUETools DB Plugin V2.1.6
[CTDB TOCID: CuEVIN1cxfN53T9gyDuv2ZbZxJE-] foundSubmit result: CuEVIN1cxfN53T9gyDuv2ZbZxJE- has been confirmedTrack | CTDB Status 1 | (5/5) Accurately ripped 2 | (5/5) Accurately ripped 3 | (5/5) Accurately ripped 4 | (5/5) Accurately ripped 5 | (5/5) Accurately ripped 6 | (5/5) Accurately ripped 7 | (5/5) Accurately ripped 8 | (5/5) Accurately ripped 9 | (5/5) Accurately ripped
==== Log checksum F7E601E828ED5C0BFECDD84A89FB23DB4F4D94D3F169AEECB0F4F11228A23747 ====

Содержание индексной карты (.cue)

REM DATE 1996REM DISCID 7911EC0AREM COMMENT "ExactAudioCopy v1.1"CATALOG 0000000000000PERFORMER "David Thomas And Two Pale Boys"TITLE "Erewhon"FILE "01. Obsession.wav" WAVE TRACK 01 AUDIO TITLE "Obsession" PERFORMER "David Thomas And Two Pale Boys" INDEX 01 00:00:00FILE "02. Planet Of Fools.wav" WAVE TRACK 02 AUDIO TITLE "Planet Of Fools" PERFORMER "David Thomas And Two Pale Boys" INDEX 01 00:00:00FILE "03. Nowheresville.wav" WAVE TRACK 03 AUDIO TITLE "Nowheresville" PERFORMER "David Thomas And Two Pale Boys" INDEX 01 00:00:00FILE "04. Fire.wav" WAVE TRACK 04 AUDIO TITLE "Fire" PERFORMER "David Thomas And Two Pale Boys" INDEX 01 00:00:00FILE "05. Lantern.wav" WAVE TRACK 05 AUDIO TITLE "Lantern" PERFORMER "David Thomas And Two Pale Boys" INDEX 01 00:00:00FILE "06. Morbid Sky.wav" WAVE TRACK 06 AUDIO TITLE "Morbid Sky" PERFORMER "David Thomas And Two Pale Boys" INDEX 01 00:00:00FILE "07. Weird Cornfields.wav" WAVE TRACK 07 AUDIO TITLE "Weird Cornfields" PERFORMER "David Thomas And Two Pale Boys" INDEX 01 00:00:00FILE "08. Kathleen.wav" WAVE TRACK 08 AUDIO TITLE "Kathleen" PERFORMER "David Thomas And Two Pale Boys" INDEX 01 00:00:00FILE "09. Highway 61 Revisited.wav" WAVE TRACK 09 AUDIO TITLE "Highway 61 Revisited" PERFORMER "David Thomas And Two Pale Boys" INDEX 01 00:00:00 TRACK 10 MODEx/2xxx TITLE "DATA" PERFORMER "David Thomas And Two Pale Boys" INDEX 00 11:09:30

[2004 · GRCD 596] 18 Monkeys On A Dead Man’s Chest

01. New Orleans Fuzz 3:45
02. Numbers Man 4:40
03. Little Sister 3:13
04. Habeas Corpus 4:31
05. Brunswick Parking Lot 5:54
06. Nebraska Alcohol Abuse 6:20
07. Sad Eyed Lowlands 5:23
08. Golden Surf 4:35
09. Prepare For The End 7:09
Продолжительность: 00:45:30

Лог создания рипа

Exact Audio Copy V1.3 from 2. September 2016
EAC extraction logfile from 22. March 2017, 12:07
David Thomas & Two Pale Boys / 18 Monkeys on a Dead Man's Chest
Used drive : HL-DT-STDVDRAM GP57ES40 Adapter: 1 ID: 0
Read mode : SecureUtilize accurate stream : YesDefeat audio cache : YesMake use of C2 pointers : No
Read offset correction : 6Overread into Lead-In and Lead-Out : NoFill up missing offset samples with silence : YesDelete leading and trailing silent blocks : NoNull samples used in CRC calculations : YesUsed interface : Native Win32 interface for Win NT & 2000Gap handling : Appended to previous track
Used output format : User Defined EncoderSelected bitrate : 1024 kBit/sQuality : HighAdd ID3 tag : NoCommand line compressor : C:\Program Files (x86)\Exact Audio Copy\Flac\flac.exeAdditional command line options : -8 -e -p -V -T "ARTIST=%artist%" -T "TITLE=%title%" -T "ALBUM=%albumtitle%" -T "DATE=%year%" -T "TRACKNUMBER=%tracknr%" -T "GENRE=%genre%" -T "PERFORMER=%albuminterpret%" -T "COMPOSER=%composer%" %haslyrics%--tag-from-file=LYRICS="%lyricsfile%"%haslyrics% -T "ALBUMARTIST=%albumartist%" -T "DISCNUMBER=%cdnumber%" -T "TOTALDISCS=%totalcds%" -T "TOTALTRACKS=%numtracks%" -T "COMMENT=%comment%" %source% -o %dest%
TOC of the extracted CD
Track | Start | Length | Start sector | End sector --------------------------------------------------------- 1 | 0:00.00 | 3:44.42 | 0 | 16841 2 | 3:44.42 | 4:39.68 | 16842 | 37834 3 | 8:24.35 | 3:12.53 | 37835 | 52287 4 | 11:37.13 | 4:31.19 | 52288 | 72631 5 | 16:08.32 | 5:54.22 | 72632 | 99203 6 | 22:02.54 | 6:20.14 | 99204 | 127717 7 | 28:22.68 | 5:23.36 | 127718 | 151978 8 | 33:46.29 | 4:34.70 | 151979 | 172598 9 | 38:21.24 | 7:08.42 | 172599 | 204740
Track 1
Filename D:\My torrents\David Thomas & Two Pale Boys - 18 Monkeys on a Dead Man's Chest [FLAC]\01 - New Orleans Fuzz.wav
Pre-gap length 0:00:02.00
Peak level 99.7 % Extraction speed 1.0 X Track quality 100.0 % Test CRC D9AF156F Copy CRC D9AF156F Accurately ripped (confidence 3) [CF065711] (AR v2) Copy OK
Track 2
Filename D:\My torrents\David Thomas & Two Pale Boys - 18 Monkeys on a Dead Man's Chest [FLAC]\02 - Numbers Man.wav
Peak level 99.7 % Extraction speed 1.2 X Track quality 100.0 % Test CRC 3DBC1ACD Copy CRC 3DBC1ACD Accurately ripped (confidence 3) [D6DA4B32] (AR v2) Copy OK
Track 3
Filename D:\My torrents\David Thomas & Two Pale Boys - 18 Monkeys on a Dead Man's Chest [FLAC]\03 - Little Sister.wav
Pre-gap length 0:00:03.00
Peak level 98.9 % Extraction speed 1.3 X Track quality 100.0 % Test CRC E551D01B Copy CRC E551D01B Accurately ripped (confidence 3) [1860C597] (AR v2) Copy OK
Track 4
Filename D:\My torrents\David Thomas & Two Pale Boys - 18 Monkeys on a Dead Man's Chest [FLAC]\04 - Habeas Corpus.wav
Pre-gap length 0:00:03.00
Peak level 99.7 % Extraction speed 1.3 X Track quality 99.9 % Test CRC CFE51075 Copy CRC CFE51075 Accurately ripped (confidence 3) [4EBFC3B8] (AR v2) Copy OK
Track 5
Filename D:\My torrents\David Thomas & Two Pale Boys - 18 Monkeys on a Dead Man's Chest [FLAC]\05 - Brunswick Parking Lot.wav
Pre-gap length 0:00:04.00
Peak level 85.6 % Extraction speed 1.6 X Track quality 100.0 % Test CRC EA5C53D3 Copy CRC EA5C53D3 Accurately ripped (confidence 3) [A1E21EB0] (AR v2) Copy OK
Track 6
Filename D:\My torrents\David Thomas & Two Pale Boys - 18 Monkeys on a Dead Man's Chest [FLAC]\06 - Nebraska Alcohol Abuse.wav
Pre-gap length 0:00:03.00
Peak level 99.7 % Extraction speed 1.8 X Track quality 100.0 % Test CRC 59A29B48 Copy CRC 59A29B48 Accurately ripped (confidence 3) [F851AE99] (AR v2) Copy OK
Track 7
Filename D:\My torrents\David Thomas & Two Pale Boys - 18 Monkeys on a Dead Man's Chest [FLAC]\07 - Sad Eyed Lowlands.wav
Pre-gap length 0:00:03.00
Peak level 97.8 % Extraction speed 1.9 X Track quality 100.0 % Test CRC E1ABE534 Copy CRC E1ABE534 Accurately ripped (confidence 3) [8CF45F19] (AR v2) Copy OK
Track 8
Filename D:\My torrents\David Thomas & Two Pale Boys - 18 Monkeys on a Dead Man's Chest [FLAC]\08 - Golden Surf.wav
Pre-gap length 0:00:04.00
Peak level 99.7 % Extraction speed 1.9 X Track quality 100.0 % Test CRC 96E05DF3 Copy CRC 96E05DF3 Accurately ripped (confidence 3) [2B500055] (AR v2) Copy OK
Track 9
Filename D:\My torrents\David Thomas & Two Pale Boys - 18 Monkeys on a Dead Man's Chest [FLAC]\09 - Prepare for the End.wav
Pre-gap length 0:00:04.00
Peak level 99.6 % Extraction speed 2.1 X Track quality 100.0 % Test CRC 8A1AE14E Copy CRC 8A1AE14E Accurately ripped (confidence 3) [48E1D2DE] (AR v2) Copy OK
All tracks accurately ripped
No errors occurred
End of status report
---- CUETools DB Plugin V2.1.6
[CTDB TOCID: .bA0rwLa4bsvA8ZpHLcyd93HXbk-] foundSubmit result: .bA0rwLa4bsvA8ZpHLcyd93HXbk- has been confirmedTrack | CTDB Status 1 | (14/14) Accurately ripped 2 | (14/14) Accurately ripped 3 | (14/14) Accurately ripped 4 | (14/14) Accurately ripped 5 | (14/14) Accurately ripped 6 | (14/14) Accurately ripped 7 | (14/14) Accurately ripped 8 | (14/14) Accurately ripped 9 | (14/14) Accurately ripped
==== Log checksum 33E433ECA92E645553CFC855424C47E8F9AE3B52FEC4138E8843153372F60E4C ====

Содержание индексной карты (.cue)

REM DATE 2004REM DISCID 690AA909REM COMMENT "ExactAudioCopy v1.3"PERFORMER "David Thomas & two pale boys"TITLE "18 Monkeys On A Dead Man’s Chest"FILE "01. New Orleans Fuzz.wav" WAVE TRACK 01 AUDIO TITLE "New Orleans Fuzz" PERFORMER "David Thomas & two pale boys" FLAGS DCP INDEX 01 00:00:00FILE "02. Numbers Man.wav" WAVE TRACK 02 AUDIO TITLE "Numbers Man" PERFORMER "David Thomas & two pale boys" FLAGS DCP INDEX 01 00:00:00 TRACK 03 AUDIO TITLE "Little Sister" PERFORMER "David Thomas & two pale boys" FLAGS DCP INDEX 00 04:36:68FILE "03. Little Sister.wav" WAVE INDEX 01 00:00:00 TRACK 04 AUDIO TITLE "Habeas Corpus" PERFORMER "David Thomas & two pale boys" FLAGS DCP INDEX 00 03:09:53FILE "04. Habeas Corpus.wav" WAVE INDEX 01 00:00:00 TRACK 05 AUDIO TITLE "Brunswick Parking Lot" PERFORMER "David Thomas & two pale boys" FLAGS DCP INDEX 00 04:27:19FILE "05. Brunswick Parking Lot.wav" WAVE INDEX 01 00:00:00 TRACK 06 AUDIO TITLE "Nebraska Alcohol Abuse" PERFORMER "David Thomas & two pale boys" FLAGS DCP INDEX 00 05:51:22FILE "06. Nebraska Alcohol Abuse.wav" WAVE INDEX 01 00:00:00 TRACK 07 AUDIO TITLE "Sad Eyed Lowlands" PERFORMER "David Thomas & two pale boys" FLAGS DCP INDEX 00 06:17:14FILE "07. Sad Eyed Lowlands.wav" WAVE INDEX 01 00:00:00 TRACK 08 AUDIO TITLE "Golden Surf" PERFORMER "David Thomas & two pale boys" FLAGS DCP INDEX 00 05:19:36FILE "08. Golden Surf.wav" WAVE INDEX 01 00:00:00 TRACK 09 AUDIO TITLE "Prepare For The End" PERFORMER "David Thomas & two pale boys" FLAGS DCP INDEX 00 04:30:70FILE "09. Prepare For The End.wav" WAVE INDEX 01 00:00:00

[2017 · NWN 043] Live Free Or Die

01. Last Of Mohicans 2:41
02. Stacker Three 4:11
03. Fish Shack 4:08
04. Letter Home 1:51
05. Thelmas In Houston 5:03
06. Will The Deer Blink 3:06
07. The Orange Show 10:03
08. Mckissacks Blues 5:48
09. Ghost Line Diaries 6:09
10. Bay City 3:23
11. Lost Highway 5:10
Продолжительность: 00:51:33
Источник.

Лог проверки качества

AUDIOCHECKER v2.0 beta (build 457) - by Dester - opdester@freemail.hu~~~~~~~~~~~~~~~~~~~~~~~~~~~~~~~~~~-=== DO NOT EDIT THIS FILE! ===-
Path: ...\[2017 · NWN 043] Live Free Or Die
01 -=- 01. Last Of Mohicans.flac -=- CDDA (100%)02 -=- 02. Stacker Three.flac -=- CDDA (100%)03 -=- 03. Fish Shack.flac -=- CDDA (100%)04 -=- 04. Letter Home.flac -=- CDDA (100%)05 -=- 05. Thelmas In Houston.flac -=- CDDA (100%)06 -=- 06. Will The Deer Blink.flac -=- CDDA (100%)07 -=- 07. The Orange Show.flac -=- CDDA (100%)08 -=- 08. Mckissacks Blues.flac -=- CDDA (100%)09 -=- 09. Ghost Line Diaries.flac -=- CDDA (100%)10 -=- 10. Bay City.flac -=- CDDA (100%)11 -=- 11. Lost Highway.flac -=- CDDA (99%)
Summary 99,91% CDDA
184334708


[torrentc.info]_t_5537354.torrent
Торрент: Зарегистрирован ·  [ 2018-03-28 22:57 ] ·  164b399d8e4c7c83d82729f4418c4ae84564521a

24 KB

Статус: проверено
Скачан: 0 раз
Размер: 957 MB
Оценка: 
(Голосов: 0)
Сказали спасибо: 0  Спасибо
Похожие темы
[Профиль]    [ЛС]
Показать сообщения:    
Ответить на тему

Текущее время: Сегодня 17:53

Часовой пояс: GMT + 7



Вы не можете начинать темы
Вы не можете отвечать на сообщения
Вы не можете редактировать свои сообщения
Вы не можете удалять свои сообщения
Вы не можете голосовать в опросах
Вы не можете прикреплять файлы к сообщениям
Вы можете скачивать файлы