(IDM) [CD] The Art Of Noise - The FON Mixes - 1991, FLAC (image+.cue), lossless

Ответить на тему
Статистика раздачи [Обновить пиров]
Размер:  295 MB   |    Зарегистрирован:  6 месяцев 27 дней   |    Скачан:  0 раз

Полного источника не было: Никогда

 
   
 
 
 
Автор Сообщение

torrentc.info

Создавать темы 26-Мар-2018 23:35

[Цитировать]

The Art Of Noise / The FON Mixes
Жанр: IDM, Techno
Носитель: CD
Страна-производитель диска (релиза): Germany
Год издания: 1991
Издатель (лейбл): China Records
Номер по каталогу: 4509-96101-2
Страна исполнителя (группы): UK
Аудиокодек: FLAC (*.flac)
Тип рипа: image+.cue
Битрейт аудио: lossless
Продолжительность: 0:49:11
Источник (релизер): Сщбственный рип
Наличие сканов в содержимом раздачи: да
Треклист:
1. Instruments Of Darkness (All Of Us Are One People) (The Prodigy Mix) 3:38
2. Yebo (Interlude 1) (A Mark Gamble Mix) 1:17
3. Roller 10 (The Rhythmatic Mix) 4:47
4. Back To Backbeat (The Robert Gordon Mix) 4:27
5. Shades Of Paranoimia (The Carl Cox Mix) 3:42
6. Ode To A D.J. (Interlude 2) (A Mark Gamble Mix) 1:09
7. Catwalk (The Ground Mix) 5:02
8. Dragnet And Peter Gunn Have A Day At The Races (Interlude 3) (A Mark Gamble Mix) 1:26
9. Legs (The Graham Massey Mix) 3:17
10. L.E.F. (The Mark Brydon Mix) 5:00
11. I Of The Needled (The Sweet Exorcist Mix) 4:34
12. Crusoe (The LFO Mix) 3:44
13. The Art Of Slow Love 5:12
14. No Sun (Interlude 4) (A Mark Gamble Mix)

Лог создания рипа

Exact Audio Copy V1.0 beta 3 from 29. August 2011
Отчёт EAC об извлечении, выполненном 24. марта 2018, 19:17
The Art Of Noise / The Fon Mixes
Дисковод: Optiarc DVD RW AD-7200S Adapter: 3 ID: 0
Режим чтения : ДостоверностьИспользование точного потока : ДаОтключение кэша аудио : ДаИспользование указателей C2 : Нет
Коррекция смещения при чтении : 48Способность читать области Lead-in и Lead-out : НетЗаполнение пропущенных сэмплов тишиной : ДаУдаление блоков с тишиной в начале и конце : НетПри вычислениях CRC использовались нулевые сэмплы : ДаИнтерфейс : Установленный внешний ASPI-интерфейс
Выходной формат : Пользовательский кодировщикВыбранный битрейт : 1024 kBit/sКачество : ВысокийДобавление ID3-тега : НетУтилита сжатия : C:\Program Files\Exact Audio Copy\FLAC\FLAC.EXEДополнительные параметры : -V -8 -T "Date=%year%" -T "Genre=%genre%" %source%
TOC извлечённого CD
Трек | Старт | Длительность | Начальный сектор | Конечный сектор --------------------------------------------------------------------- 1 | 0:00.00 | 3:38.02 | 0 | 16351 2 | 3:38.02 | 1:18.00 | 16352 | 22201 3 | 4:56.02 | 4:47.08 | 22202 | 43734 4 | 9:43.10 | 4:27.67 | 43735 | 63826 5 | 14:11.02 | 3:43.38 | 63827 | 80589 6 | 17:54.40 | 1:09.10 | 80590 | 85774 7 | 19:03.50 | 5:02.22 | 85775 | 108446 8 | 24:05.72 | 1:26.65 | 108447 | 114961 9 | 25:32.62 | 3:17.48 | 114962 | 129784 10 | 28:50.35 | 5:00.47 | 129785 | 152331 11 | 33:51.07 | 4:34.53 | 152332 | 172934 12 | 38:25.60 | 3:44.47 | 172935 | 189781 13 | 42:10.32 | 5:12.38 | 189782 | 213219 14 | 47:22.70 | 1:47.67 | 213220 | 221311
Характеристики диапазона извлечения и сообщения об ошибках
Выбранный диапазон
Имя файла C:\Users\ASUS\Music\Аудио\The Art Of Noise - The Fon Mixes.wav
Пиковый уровень 99.9 % Скорость извлечения 3.7 X Качество диапазона 100.0 % CRC теста 6ADDFA5E CRC копии 6ADDFA5E Копирование... OK
Ошибок не произошло
AccurateRip: сводка
Трек 1 : извлечено точно (доверие 5) [D2604AF1] (AR v2)Трек 2 : извлечено точно (доверие 5) [0B3FF960] (AR v2)Трек 3 : извлечено точно (доверие 5) [94FE0451] (AR v2)Трек 4 : извлечено точно (доверие 5) [478C089E] (AR v2)Трек 5 : извлечено точно (доверие 5) [8CEE7311] (AR v2)Трек 6 : извлечено точно (доверие 5) [B8A9FBD5] (AR v2)Трек 7 : извлечено точно (доверие 5) [F9BE20FF] (AR v2)Трек 8 : извлечено точно (доверие 5) [0DE419CD] (AR v2)Трек 9 : извлечено точно (доверие 5) [62EC3EBC] (AR v2)Трек 10 : извлечено точно (доверие 5) [B4121660] (AR v2)Трек 11 : извлечено точно (доверие 5) [766345AF] (AR v2)Трек 12 : извлечено точно (доверие 5) [4BE8D941] (AR v2)Трек 13 : извлечено точно (доверие 5) [BCF7CDBF] (AR v2)Трек 14 : извлечено точно (доверие 5) [A7FCCFFF] (AR v2)
Все треки извлечены точно
Конец отчёта
==== Контрольная сумма отчёта C232F1B53C8B27C129F3B8B45DEDA78B22C97860DABB8F14DA899623DCA69946 ====

Содержание индексной карты (.CUE)

REM GENRE TechnoREM DATE 1991REM DISCID B00B860EREM COMMENT "ExactAudioCopy v1.0b3"PERFORMER "The Art Of Noise"TITLE "The Fon Mixes"FILE "The Art Of Noise - The Fon Mixes.flac" WAVE TRACK 01 AUDIO TITLE "Instruments Of Darkness (All Of Us Are One People) (The Prodigy Mix)" PERFORMER "The Art Of Noise" INDEX 01 00:00:00 TRACK 02 AUDIO TITLE "Yebo (Interlude 1) (A Mark Gamble Mix)" PERFORMER "The Art Of Noise" INDEX 01 03:38:02 TRACK 03 AUDIO TITLE "Roller 10 (The Rhythmatic Mix)" PERFORMER "The Art Of Noise" INDEX 01 04:56:02 TRACK 04 AUDIO TITLE "Back To Backbeat (The Robert Gordon Mix)" PERFORMER "The Art Of Noise" INDEX 01 09:43:10 TRACK 05 AUDIO TITLE "Shades Of Paranoimia (The Carl Cox Mix)" PERFORMER "The Art Of Noise" INDEX 01 14:11:02 TRACK 06 AUDIO TITLE "Ode To A D.J. (Interlude 2) (The Mark Gambler Mix)" PERFORMER "The Art Of Noise" INDEX 01 17:54:40 TRACK 07 AUDIO TITLE "Catwalk (The Ground Mix)" PERFORMER "The Art Of Noise" INDEX 01 19:03:50 TRACK 08 AUDIO TITLE "Dragnet And Peter Gunn Have A Day At The Races (Interlude 3) (The MarkGambler..." PERFORMER "The Art Of Noise" INDEX 01 24:05:72 TRACK 09 AUDIO TITLE "Legs (The Graham Massey Mix)" PERFORMER "The Art Of Noise" INDEX 01 25:32:62 TRACK 10 AUDIO TITLE "L.E.F. (The Mark Brydon Mix)" PERFORMER "The Art Of Noise" INDEX 01 28:50:35 TRACK 11 AUDIO TITLE "I Of The Needled (The Sweet Exorcist Mix)" PERFORMER "The Art Of Noise" INDEX 01 33:51:07 TRACK 12 AUDIO TITLE "Crusoe (The LFO Mix)" PERFORMER "The Art Of Noise" INDEX 01 38:25:60 TRACK 13 AUDIO TITLE "The Art Of Slow Love (Youth (Slow concept by Phil Barber))" PERFORMER "The Art Of Noise" INDEX 01 42:10:32 TRACK 14 AUDIO TITLE "No Sun (Interlude 4) (A Mark Gamble Mix)" PERFORMER "The Art Of Noise" INDEX 01 47:22:70


[torrentc.info]_t_5538992.torrent
Торрент: Зарегистрирован ·  [ 2018-03-26 23:31 ] ·  3d9e6a44f71705bc02489373bbb6c30908dd0525

12 KB

Статус: проверено
Скачан: 0 раз
Размер: 295 MB
Оценка: 
(Голосов: 0)
Сказали спасибо: 0  Спасибо
Похожие темы
[Профиль]    [ЛС]
Показать сообщения:    
Ответить на тему

Текущее время: Сегодня 17:14

Часовой пояс: GMT + 7



Вы не можете начинать темы
Вы не можете отвечать на сообщения
Вы не можете редактировать свои сообщения
Вы не можете удалять свои сообщения
Вы не можете голосовать в опросах
Вы не можете прикреплять файлы к сообщениям
Вы можете скачивать файлы