[iPhone] Драконий Жемчуг Зет: Фильм шестой / Dragon Ball Z: Clash!! 10 Billion Power Warriors (Нисио Дайсукэ / Nishio Daisuke) [1992, действие, боевые искусства, приключения, комедия, фэнтези, сёнэн, DVDRip, 480x368]

Ответить на тему
Статистика раздачи [Обновить пиров]
Размер:  451 MB   |    Зарегистрирован:  6 месяцев 30 дней   |    Скачан:  0 раз

Полного источника не было: Никогда

 
   
 
 
 
Автор Сообщение

torrentc.info

Создавать темы 20-Мар-2018 22:38

[Цитировать]

Драконий Жемчуг Зет: Фильм шестой-
Оригинальное название: ラゴンボールZ 激突!!100億パワーの戦士たち
Английское название: Dragon Ball Z: Clash!! 10 Billion Power Warriors-Год выхода:
1992
Страна: Япония
Жанр:действие, боевые искусства, приключения, комедия, фэнтези, сёнэн
Продолжительность: 00:45:39-Перевод : Любительский Одноголосый AnimeBest]
Субтитры: -Дата выхода: 07.03.1992-Режиссёр: Нисио Дайсукэ
Студия: -Описание: Гиганская "ожившая планета" угрожает существованию Нового Намека. Гоку и его друзья должны спасти намекианцев от угрозы вторжения, но это будет не так просто. На стороне противника армия сильных роботов-охранников. А в глубинах "живой планеты" скрывается уже знакомый нам враг: Кулер.- || || || -Качество: DVDRip
Формат файла: *.m4v
Видео кодек: H.264
Аудио кодек: ААС
Разрешение: 480х368
Другие параметры видео: 896 Кбит/сек, 4:3, 23,976 кадр/сек
Аудио : 160 Кбит/сек, 2 канала(ов), 48,0 КГц
Аудио : 160 Кбит/сек, 2 канала(ов), 48,0 КГц
Аудио : 160 Кбит/сек, 2 канала(ов), 48,0 КГц
Вшитая обложка: есть
Доп. теги (режиссёр, актёры и т.д.): есть
Телешоу/видеоклип : не требуется
Главы: нет
Серия/сезон: не требуется

MediaInfo

Format                                   : MPEG-4
Format profile                           : Base Media / Version 2
Codec ID                                 : mp42
File size                                : 451 MiB
Duration                                 : 45mn 39s
Overall bit rate mode                    : Variable
Overall bit rate                         : 1 380 Kbps
Movie name                               : Dragon Ball Z Movie 06
Genre                                    : Adventure
Recorded date                            : 1992
Encoded date                             : UTC 2012-06-06 15:33:00
Tagged date                              : UTC 2012-07-16 05:10:18
Writing application                      : HandBrake 0.9.6 2012022800
Cover                                    : Yes
iTunMOVI                                 :  /  /  /  /  directors /   /    /    name /    Нисио Дайсукэ /    /   /  /
desc                                     : Гиганская "ожившая планета" угрожает существованию Нового Намека.
ldes                                     : Гиганская "ожившая планета" угрожает существованию Нового Намека. Гоку и его друзья должны спасти намекианцев от угрозы вторжения, но это будет не так просто. На стороне противника армия сильных роботов-охранников. А в глубинах "живой планеты" скрывается уже знакомый нам враг: Кулер.
stik                                     : 9
Video
ID                                       : 1
Format                                   : AVC
Format/Info                              : Advanced Video Codec
Format profile                           : Baseline@L3.0
Format settings, CABAC                   : No
Format settings, ReFrames                : 4 frames
Codec ID                                 : avc1
Codec ID/Info                            : Advanced Video Coding
Duration                                 : 45mn 39s
Duration_FirstFrame                      : 67ms
Bit rate mode                            : Variable
Bit rate                                 : 896 Kbps
Width                                    : 480 pixels
Height                                   : 368 pixels
Display aspect ratio                     : 4:3
Frame rate mode                          : Constant
Frame rate                               : 29.970 fps
Color space                              : YUV
Chroma subsampling                       : 4:2:0
Bit depth                                : 8 bits
Scan type                                : Progressive
Bits/(Pixel*Frame)                       : 0.169
Stream size                              : 292 MiB (65%)
Writing library                          : x264 core 120
Encoding settings                        : cabac=0 / ref=4 / deblock=1:0:0 / analyse=0x1:0x131 / me=umh / subme=6 / psy=1 / psy_rd=0.00:0.00 / mixed_ref=1 / me_range=16 / chroma_me=1 / trellis=0 / 8x8dct=0 / cqm=0 / deadzone=21,11 / fast_pskip=0 / chroma_qp_offset=0 / threads=6 / sliced_threads=0 / nr=0 / decimate=1 / interlaced=0 / bluray_compat=0 / constrained_intra=0 / bframes=0 / weightp=0 / keyint=300 / keyint_min=30 / scenecut=40 / intra_refresh=0 / rc_lookahead=40 / rc=2pass / mbtree=1 / bitrate=896 / ratetol=1.0 / qcomp=0.60 / qpmin=3 / qpmax=69 / qpstep=4 / cplxblur=20.0 / qblur=0.5 / vbv_maxrate=1500 / vbv_bufsize=2000 / nal_hrd=none / ip_ratio=1.40 / aq=1:1.00
Encoded date                             : UTC 2012-06-06 15:33:00
Tagged date                              : UTC 2012-06-06 15:41:32
Color primaries                          : BT.601-6 525, BT.1358 525, BT.1700 NTSC, SMPTE 170M
Transfer characteristics                 : BT.709-5, BT.1361
Matrix coefficients                      : BT.601-6 525, BT.1358 525, BT.1700 NTSC, SMPTE 170M
Audio #1
ID                                       : 2
Format                                   : AAC
Format/Info                              : Advanced Audio Codec
Format profile                           : LC
Codec ID                                 : 40
Duration                                 : 45mn 37s
Bit rate mode                            : Variable
Bit rate                                 : 160 Kbps
Maximum bit rate                         : 234 Kbps
Channel(s)                               : 2 channels
Channel positions                        : Front: L R
Sampling rate                            : 48.0 KHz
Compression mode                         : Lossy
Stream size                              : 52.2 MiB (12%)
Language                                 : Russian
Encoded date                             : UTC 2012-06-06 15:33:00
Tagged date                              : UTC 2012-06-06 15:41:32
Audio #2
ID                                       : 3
Format                                   : AAC
Format/Info                              : Advanced Audio Codec
Format profile                           : LC
Codec ID                                 : 40
Duration                                 : 45mn 37s
Bit rate mode                            : Variable
Bit rate                                 : 160 Kbps
Maximum bit rate                         : 193 Kbps
Channel(s)                               : 2 channels
Channel positions                        : Front: L R
Sampling rate                            : 48.0 KHz
Compression mode                         : Lossy
Stream size                              : 52.2 MiB (12%)
Language                                 : Japanese
Encoded date                             : UTC 2012-06-06 15:33:00
Tagged date                              : UTC 2012-06-06 15:41:32
Audio #3
ID                                       : 4
Format                                   : AAC
Format/Info                              : Advanced Audio Codec
Format profile                           : LC
Codec ID                                 : 40
Duration                                 : 45mn 37s
Bit rate mode                            : Variable
Bit rate                                 : 160 Kbps
Maximum bit rate                         : 287 Kbps
Channel(s)                               : 2 channels
Channel positions                        : Front: L R
Sampling rate                            : 48.0 KHz
Compression mode                         : Lossy
Stream size                              : 52.2 MiB (12%)
Language                                 : English
Encoded date                             : UTC 2012-06-06 15:33:00
Tagged date                              : UTC 2012-06-06 15:41:32
Text
ID                                       : 5
Format                                   : mp4s
Codec ID                                 : E0
Duration                                 : 43mn 37s
Bit rate mode                            : Variable
Bit rate                                 : 1 107 bps
Maximum bit rate                         : 4 200 Mbps
Stream size                              : 354 KiB (0%)
Language                                 : Russian
Encoded date                             : UTC 2012-06-06 15:33:00
Tagged date                              : UTC 2012-06-06 15:41:26

Скриншоты

- Группы:


[torrentc.info]_t_4126911.torrent
Торрент: Зарегистрирован ·  [ 2018-03-20 22:38 ] ·  6a532c6c00a6d692cd216f21df0472aed5f19e0b

1 KB

Статус: проверено
Скачан: 0 раз
Размер: 451 MB
Оценка: 
(Голосов: 0)
Сказали спасибо: 0  Спасибо
Похожие темы
[Профиль]    [ЛС]
Показать сообщения:    
Ответить на тему

Текущее время: Сегодня 10:16

Часовой пояс: GMT + 7



Вы не можете начинать темы
Вы не можете отвечать на сообщения
Вы не можете редактировать свои сообщения
Вы не можете удалять свои сообщения
Вы не можете голосовать в опросах
Вы не можете прикреплять файлы к сообщениям
Вы можете скачивать файлы