(Post-Bop / Jazz Avant-Garde) [WEB] Cloudmakers Five - Traveling Pulse - 2018, FLAC (tracks), lossless

Ответить на тему
Статистика раздачи [Обновить пиров]
Размер:  324 MB   |    Зарегистрирован:  8 месяцев 28 дней   |    Скачан:  0 раз

Полного источника не было: Никогда

 
   
 
 
 
Автор Сообщение

torrentc.info

Создавать темы 19-Мар-2018 04:20

[Цитировать]

Cloudmakers Five / Traveling Pulse
[img=right]https://wmpics.pics/di-XKMV.jpg[/img]
Жанр: Post-Bop / Jazz Avant-Garde
Носитель: WEB
Год издания: 2018
Издатель (лейбл): Web Release [Whirlwind Records]
Страна исполнителя (группы): UK
Аудиокодек: FLAC (*.flac)
Тип рипа: tracks
Битрейт аудио: lossless
Продолжительность: 55:38 min
Источник (релизер): bandcamp.com
Наличие сканов в содержимом раздачи:
Треклист:
1. The Past Is Another Country. 10:09
2. Traveling Pulse (Somewhere North of Ghana). 12:42
3. Golden. 6:25
4. The Road (For Ed). 10:13
5. The Exchange. 8:26
6. Cycle Song (For J.T). 7:39

DRM.log

foobar2000 1.3.8 / Dynamic Range Meter 1.1.1log date: 2018-03-19 01:15:10
--------------------------------------------------------------------------------Analyzed: Cloudmakers Five / Traveling Pulse--------------------------------------------------------------------------------
DR Peak RMS Duration Track--------------------------------------------------------------------------------DR7 -0.21 dB -10.66 dB 10:09 01-The Past is Another Country (Live)DR9 -0.21 dB -12.77 dB 12:43 02-Traveling Pulse (Somewhere North of Ghana) (Live)DR12 -0.21 dB -16.63 dB 6:26 03-Golden (Live)DR7 -0.21 dB -10.03 dB 10:14 04-The Road (For Ed) (Live)DR9 -0.21 dB -12.74 dB 8:27 05-The Exchange (Live)DR8 -0.21 dB -12.37 dB 7:40 06-Cycle Song (For J.T.) (Live)--------------------------------------------------------------------------------
Number of tracks: 6Official DR value: DR9
Samplerate: 44100 HzChannels: 2Bits per sample: 16Bitrate: 855 kbpsCodec: FLAC================================================================================

Лог проверки качества

-----------------------
DON'T MODIFY THIS FILE
-----------------------
PERFORMER: auCDtect Task Manager, ver. 1.6.0 RC1 build 1.6.0.1Copyright (c) 2008-2010 y-soft. All rights reservedhttp://y-soft.org
ANALYZER: auCDtect: CD records authenticity detector, version 0.8.2Copyright (c) 2004 Oleg Berngardt. All rights reserved.Copyright (c) 2004 Alexander Djourik. All rights reserved.
FILE: 01 - The Past is Another Country (Live).flac Size: 67750160 Hash: 0704B9CB2F75733427159E72573D4190 Accuracy: -m0 Conclusion: CDDA 100% Signature: 47773846EC9D93ABCF6A7872919E4DF63FCF848FFILE: 02 - Traveling Pulse (Somewhere North of Ghana) (Live).flac Size: 72321849 Hash: 1A2BC1C1034F6A66769EAE99E5C98D12 Accuracy: -m0 Conclusion: CDDA 100% Signature: E7ED4B94F0CD4AC9063780CD09CE41FF5DD3B83AFILE: 03 - Golden (Live).flac Size: 31075860 Hash: 193E9BD7FD8B75B180CA0E0306D3D654 Accuracy: -m0 Conclusion: CDDA 100% Signature: 05B77FC94C7D4F9DA79A4B0D04CE39AEF52E3BFDFILE: 04 - The Road (For Ed) (Live).flac Size: 67592710 Hash: 66B56738FD69D806405FF9A4FABF82FC Accuracy: -m0 Conclusion: CDDA 100% Signature: 906753554E8298362695C46D2E1D0366D243F66DFILE: 05 - The Exchange (Live).flac Size: 51280191 Hash: CC29A80F92AB07DFE8A2E04480C4970C Accuracy: -m0 Conclusion: CDDA 100% Signature: 5A2C694779BAA169AC509B526DB90EAAFC469630FILE: 06 - Cycle Song (For J.T.) (Live).flac Size: 49231941 Hash: 6F12194A77F2AA8B6C67C15ECEA4884E Accuracy: -m0 Conclusion: CDDA 100% Signature: F5A7E8CDEB65E55351847294AB150CA4D8E754C2

Об альбоме (сборнике)

Engineered, edited and mixed by Alex Bonney
Produced by Jim Hart
Live Sound - Ali Ward
Mastered by Tyler McDiarmid
Artwork - Sophie Moates
Executive Producer - Michael Janisch
Recorded live at The Vortex Jazz Club, London (March 10/11 2017)
released February 23, 2018

Состав

- Jim Hart / compositions, vibraphone
- Michael Janisch / double bass
- Dave Smith / drums
- Antonin-Tri Hoang / alto saxophone/clarinet
- Hannes Riepler / guitar


[torrentc.info]_t_5536246.torrent
Торрент: Зарегистрирован ·  [ 2018-03-19 04:20 ] ·  d5f1540667a100a9be0cf4f3cf91ac81269fca06

14 KB

Статус: проверено
Скачан: 0 раз
Размер: 324 MB
Оценка: 
(Голосов: 0)
Сказали спасибо: 0  Спасибо
Похожие темы
[Профиль]    [ЛС]
Показать сообщения:    
Ответить на тему

Текущее время: Сегодня 19:53

Часовой пояс: GMT + 7



Вы не можете начинать темы
Вы не можете отвечать на сообщения
Вы не можете редактировать свои сообщения
Вы не можете удалять свои сообщения
Вы не можете голосовать в опросах
Вы не можете прикреплять файлы к сообщениям
Вы можете скачивать файлы