(Шансон) [CD] Драгилев Борис - Жара - 1997, APE (image+.cue), lossless

Ответить на тему
Статистика раздачи [Обновить пиров]
Размер:  273 MB   |    Зарегистрирован:  4 месяца 7 дней   |    Скачан:  0 раз

Полного источника не было: Никогда

 
   
 
 
 
Автор Сообщение

torrentc.info

Создавать темы 10-Мар-2018 19:57

[Цитировать]

Драгилев Борис / Жара
Жанр: Шансон
Носитель: CD
Страна-производитель диска (релиза): Швеция
Год издания: 1997
Издатель (лейбл): Master Sound
Номер по каталогу: MS 131
Страна исполнителя (группы): Россия
Аудиокодек: APE (*.ape)
Тип рипа: image+.cue
Битрейт аудио: lossless
Продолжительность: 00:40:39
Источник (релизер): mart64val
Наличие сканов в содержимом раздачи: да
Треклист:
01. Жара
02. Апрельское солнце
03. Маринка
04. Песенка тунеядца
05. Город
06. Фимка
07. Удачи и фарта! (Посвящается Кириллычу)
08. Шоферская
09. Божий миг
10. В ту зиму...
11. От шпаны (Посвящается Вове Соломе)
12. Подожди

Лог создания рипа

Exact Audio Copy V1.0 beta 3 from 29. August 2011
Отчёт EAC об извлечении, выполненном 23. ноября 2015, 14:02
Драгилев Борис / Жара
Дисковод: Optiarc DVD RW AD-7280S Adapter: 1 ID: 0
Режим чтения : ДостоверностьИспользование точного потока : ДаОтключение кэша аудио : ДаИспользование указателей C2 : Нет
Коррекция смещения при чтении : 48Способность читать области Lead-in и Lead-out : НетЗаполнение пропущенных сэмплов тишиной : ДаУдаление блоков с тишиной в начале и конце : НетПри вычислениях CRC использовались нулевые сэмплы : ДаИнтерфейс : Встроенный Win32-интерфейс для Win NT/2000
Выходной формат : Внутренние WAV-операцииФормат файла сэмплов : 44.100 Гц; 16 бит; стерео
TOC извлечённого CD
Трек | Старт | Длительность | Начальный сектор | Конечный сектор --------------------------------------------------------------------- 1 | 0:00.00 | 2:44.20 | 0 | 12319 2 | 2:44.20 | 4:12.32 | 12320 | 31251 3 | 6:56.52 | 2:52.55 | 31252 | 44206 4 | 9:49.32 | 4:03.08 | 44207 | 62439 5 | 13:52.40 | 3:39.47 | 62440 | 78911 6 | 17:32.12 | 2:22.30 | 78912 | 89591 7 | 19:54.42 | 3:29.33 | 89592 | 105299 8 | 23:24.00 | 3:22.02 | 105300 | 120451 9 | 26:46.02 | 3:40.73 | 120452 | 137024 10 | 30:27.00 | 3:45.47 | 137025 | 153946 11 | 34:12.47 | 3:17.33 | 153947 | 168754 12 | 37:30.05 | 3:08.62 | 168755 | 182916
Характеристики диапазона извлечения и сообщения об ошибках
Выбранный диапазон
Имя файла C:\Users\User\Desktop\111\Драгилев Борис - Жара.wav
Пиковый уровень 98.8 % Скорость извлечения 2.5 X Качество диапазона 99.9 % CRC теста E97B667A CRC копии E97B667A Копирование... OK
Ошибок не произошло
AccurateRip: сводка
Трек 1 отсутствует в базе данныхТрек 2 отсутствует в базе данныхТрек 3 отсутствует в базе данныхТрек 4 отсутствует в базе данныхТрек 5 отсутствует в базе данныхТрек 6 отсутствует в базе данныхТрек 7 отсутствует в базе данныхТрек 8 отсутствует в базе данныхТрек 9 отсутствует в базе данныхТрек 10 отсутствует в базе данныхТрек 11 отсутствует в базе данныхТрек 12 отсутствует в базе данных
Ни одного трека нет в базе AccurateRip
Конец отчёта
==== Контрольная сумма отчёта 907D8973D5EBC3AB25A903898BC24ECC8901F7025AB7AEDA9235869A525463B7 ====


[torrentc.info]_t_5121741.torrent
Торрент: Зарегистрирован ·  [ 2018-03-10 19:56 ] ·  1fe76301388fd7afcd4d0c9a16fcb91b633f5151

12 KB

Статус: проверено
Скачан: 0 раз
Размер: 273 MB
Оценка: 
(Голосов: 0)
Сказали спасибо: 0  Спасибо
Похожие темы
[Профиль]    [ЛС]
Показать сообщения:    
Ответить на тему

Текущее время: Сегодня 22:24

Часовой пояс: GMT + 7



Вы не можете начинать темы
Вы не можете отвечать на сообщения
Вы не можете редактировать свои сообщения
Вы не можете удалять свои сообщения
Вы не можете голосовать в опросах
Вы не можете прикреплять файлы к сообщениям
Вы можете скачивать файлы