(IDM, Downtempo, Electronic) [CD] Katbert - Mechanical Life - 2007, FLAC (image+.cue), lossless

Ответить на тему
Статистика раздачи [Обновить пиров]
Размер:  327 MB   |    Зарегистрирован:  2 месяца 20 дней   |    Скачан:  0 раз

Полного источника не было: Никогда

 
   
 
 
 
Автор Сообщение

torrentc.info

Создавать темы 06-Мар-2018 06:57

[Цитировать]

Katbert / Mechanical Life
Жанр: IDM, Downtempo, Electronic
Носитель: CD
Страна-производитель диска (релиза): Россия
Год издания: 2007
Издатель (лейбл): SHUM Records
Номер по каталогу: Shum cd 73
Страна исполнителя (группы): Россия
Аудиокодек: FLAC (*.flac)
Тип рипа: image+.cue
Битрейт аудио: lossless
Продолжительность: 00:55:00
Источник (релизер): Свой диск
Наличие сканов в содержимом раздачи: да
Треклист:
1 Old Movies
2 Lost Zone
3 Sea
4 E=mc²
5 Pause
6 Mechanical Life
7 Run
8 April
9 August
10 City
11 Fly
12 Summer
13 Winter

Лог создания рипа

Exact Audio Copy V1.3 from 2. September 2016
Отчёт EAC об извлечении, выполненном 5. марта 2018, 12:05
Katbert / Mechanical Life
Дисковод: ATAPI iHAS122 C Adapter: 1 ID: 0
Режим чтения : ДостоверностьИспользование точного потока : ДаОтключение кэша аудио : ДаИспользование указателей C2 : Нет
Коррекция смещения при чтении : 6Способность читать области Lead-in и Lead-out : НетЗаполнение пропущенных сэмплов тишиной : ДаУдаление блоков с тишиной в начале и конце : НетПри вычислениях CRC использовались нулевые сэмплы : ДаИнтерфейс : Встроенный Win32-интерфейс для Win NT/2000
Выходной формат : Пользовательский кодировщикВыбранный битрейт : 768 kBit/sКачество : ВысокийДобавление ID3-тега : НетУтилита сжатия : C:\Program Files\Exact Audio Copy\FLAC\FLAC.EXEДополнительные параметры : -6 -V -T "ARTIST=%artist%" -T "TITLE=%title%" -T "ALBUM=%albumtitle%" -T "DATE=%year%" -T "TRACKNUMBER=%tracknr%" -T "GENRE=%genre%" -T "COMMENT=%comment%" -T "BAND=%albuminterpret%" -T "ALBUMARTIST=%albuminterpret%" -T "COMPOSER=%composer%" %haslyrics%--tag-from-file=LYRICS="%lyricsfile%"%haslyrics% -T "DISCNUMBER=%cdnumber%" -T "TOTALDISCS=%totalcds%" -T "TOTALTRACKS=%numtracks%" %hascover%--picture="%coverfile%"%hascover% %source% -o %dest%
TOC извлечённого CD
Трек | Старт | Длительность | Начальный сектор | Конечный сектор --------------------------------------------------------------------- 1 | 0:00.00 | 3:30.23 | 0 | 15772 2 | 3:30.23 | 3:41.00 | 15773 | 32347 3 | 7:11.23 | 3:52.35 | 32348 | 49782 4 | 11:03.58 | 3:54.14 | 49783 | 67346 5 | 14:57.72 | 5:23.44 | 67347 | 91615 6 | 20:21.41 | 4:24.12 | 91616 | 111427 7 | 24:45.53 | 3:08.29 | 111428 | 125556 8 | 27:54.07 | 5:15.30 | 125557 | 149211 9 | 33:09.37 | 3:43.61 | 149212 | 165997 10 | 36:53.23 | 4:26.57 | 165998 | 186004 11 | 41:20.05 | 5:06.50 | 186005 | 209004 12 | 46:26.55 | 4:11.46 | 209005 | 227875 13 | 50:38.26 | 4:21.25 | 227876 | 247475
Характеристики диапазона извлечения и сообщения об ошибках
Выбранный диапазон
Имя файла D:\Музыка\Katbert - Mechanical Life (2007)\Katbert - Mechanical Life.wav
Пиковый уровень 100.0 % Скорость извлечения 5.7 X Качество диапазона 100.0 % CRC теста 98D21137 CRC копии 98D21137 Копирование... OK
Ошибок не произошло
AccurateRip: сводка
Трек 1 точность не определена (достоверность 1) [7970193C], AccurateRip вернул [13490BA2] (AR v2)Трек 2 точность не определена (достоверность 1) [4C4CA9AB], AccurateRip вернул [C548A1C0] (AR v2)Трек 3 точность не определена (достоверность 1) [BBCAA614], AccurateRip вернул [473B89AC] (AR v2)Трек 4 точность не определена (достоверность 1) [0FAACC54], AccurateRip вернул [70305A52] (AR v2)Трек 5 точность не определена (достоверность 1) [5CA6CEB5], AccurateRip вернул [AF2F73AC] (AR v2)Трек 6 точность не определена (достоверность 1) [B2C300CF], AccurateRip вернул [C6AE6757] (AR v2)Трек 7 точность не определена (достоверность 1) [5698016A], AccurateRip вернул [5F99812F] (AR v2)Трек 8 точность не определена (достоверность 1) [36BBE0A0], AccurateRip вернул [EE5CBE24] (AR v2)Трек 9 точность не определена (достоверность 1) [1655AF59], AccurateRip вернул [D5592A4D] (AR v2)Трек 10 точность не определена (достоверность 1) [F1B53469], AccurateRip вернул [EFA7DDDB] (AR v2)Трек 11 точность не определена (достоверность 1) [608A8D92], AccurateRip вернул [2996207F] (AR v2)Трек 12 точность не определена (достоверность 1) [64AE4043], AccurateRip вернул [957816A6] (AR v2)Трек 13 точность не определена (достоверность 1) [2710CAF0], AccurateRip вернул [3ED00BDA] (AR v2)
Ни один трек не прошёл проверки на точностьВ вашей базе может быть иной вариант штамповки диска
Конец отчёта
---- CUETools DB Plugin V2.1.6
[CTDB TOCID: B2EjDH.dyWbSUv5Vialcl277VpE-] disk not present in databaseSubmit result: B2EjDH.dyWbSUv5Vialcl277VpE- has been uploaded
Доп. информация: Katbert - музыкальный проект, основанный Михаилом Коруменко в Ростове-на-Дону в 2003 году. Параллельно с игрой на гитаре в группе «Музей ВФ», Михаил в 2003 году начал записывать первые электронные композиции, являющиеся ремиксами на творчество И.С.Баха. В мае 2007 года на лейбле Shum Records вышел альбом "Mechanical Life".
Название проекта появилось под влиянием произведения Стивена Кинга «Темная башня».
Композиции проекта издавались на лейблах в России, Украине, Германии, Австрии и США.
Помимо электронного направления, музыкант пишет музыку для кино, более академичного звучания.
Проект Katbert переименован в Pianochocolate.


[torrentc.info]_t_5529629.torrent
Торрент: Зарегистрирован ·  [ 2018-03-06 06:57 ] ·  328e1c23c9afb74bd9aa9395df6939c77f8b49e2

14 KB

Статус: проверено
Скачан: 0 раз
Размер: 327 MB
Оценка: 
(Голосов: 0)
Сказали спасибо: 0  Спасибо
Похожие темы
[Профиль]    [ЛС]
Показать сообщения:    
Ответить на тему

Текущее время: Сегодня 09:22

Часовой пояс: GMT + 7



Вы не можете начинать темы
Вы не можете отвечать на сообщения
Вы не можете редактировать свои сообщения
Вы не можете удалять свои сообщения
Вы не можете голосовать в опросах
Вы не можете прикреплять файлы к сообщениям
Вы можете скачивать файлы