(Cool, West Coast Jazz) [CD] The Charlie Mariano & Jerry Dodgion Sextet - Beauties Of 1918 (1957) - 2011, FLAC (tracks+.cue), lossless

Ответить на тему
Статистика раздачи [Обновить пиров]
Размер:  307 MB   |    Зарегистрирован:  6 месяцев 23 дня   |    Скачан:  0 раз

Полного источника не было: Никогда

 
   
 
 
 
Автор Сообщение

torrentc.info

Создавать темы 23-Фев-2018 23:36

[Цитировать]

The Charlie Mariano & Jerry Dodgion Sextet - Beauties Of 1918 (1957) Жанр: Cool, West Coast Jazz
Носитель: CD
Страна-производитель диска (релиза): Japan
Год издания: 2011
Издатель (лейбл): EMI Music Japan
Номер по каталогу: TOCJ-50186
Аудиокодек: FLAC (*.flac)
Тип рипа: tracks+.cue
Битрейт аудио: lossless
Продолжительность: 48:14
Источник (релизер): другой трекер
Наличие сканов в содержимом раздачи: да
Треклист:
01. After You've Gone (4:53)
02. When Johnny Comes Marching Home (5:16)
03. Deep River (5:43)
04. Till We Meet Again (4:19)
05. K-K-K-Katy (5:30)
06. 'Til The Clouds Roll By (2:43)
07. Over There (4:26)
08. Ja Da (4:20)
09. Hello, Central, Give Me No Man's Land (4:00)
10. Vamp's Blues (7:06)
Personnel:
Charlie Mariano - as
Jerry Dodgion - as, fl
Victor Feldman - vib
Jimmy Rowles - p
Monty Budwig - b
Shelly Manne - d
Recorded at Radio Recorders, Los Angeles, CA, December 10 & 11, 1957.
 

Об альбоме

Pianist Russ Freeman, who produced this record, related it this way : “The last time we were (with Shelly Manne’s quintet) in San Francisco, we went to blow at some motel on the outskirts of town one afternoon. There were some other musicians there; we took turns playing. Jerry (Dodgion) was there. The afternoon wound up with Charlie and Jerry playing the blues with a rhythm section for about twenty minutes. It was one of the most memorable experiences I have ever had, and I wasn’t even playing!
The co-leaders, both “hard” saxists in style, reflect their capable mastery of the work of those they admire. Dodgion likes Phil Woods, and Mariano is more closely Parkerish. “I hear Charlie every night on my band,” said Shelly Manne, “and his melodic sense never ceases to amaze me. His lines are beautiful and he solos with great continuity.”
-

Лог создания рипа

Exact Audio Copy V1.0 beta 1 from 15. November 2010
EAC extraction logfile from 10. October 2011, 8:23
Charlie Mariano & Jerry Dodgian / Beauties Of 1918
Used drive : TSSTcorpCDDVDW SH-S203N Adapter: 0 ID: 2
Read mode : SecureUtilize accurate stream : YesDefeat audio cache : YesMake use of C2 pointers : No
Read offset correction : 6Overread into Lead-In and Lead-Out : NoFill up missing offset samples with silence : YesDelete leading and trailing silent blocks : NoNull samples used in CRC calculations : YesUsed interface : Installed external ASPI interfaceGap handling : Appended to previous track
Used output format : User Defined EncoderSelected bitrate : 768 kBit/sQuality : HighAdd ID3 tag : NoCommand line compressor : C:\Program Files\Exact Audio Copy-NEW\Flac\flac.exeAdditional command line options : -8 -V -T "ARTIST=%a" -T "TITLE=%t" -T "ALBUM=%g" -T "DATE=%y" -T "TRACKNUMBER=%n" -T "TOTALTRACKS=%x" -T "GENRE=%m" -T "ALBUMARTIST=%v" -T "ALBUM ARTIST=%v" -T "COMMENT=EAC V1.01b1, Secure Mode, Test & Copy, AccurateRip, FL
TOC of the extracted CD
Track | Start | Length | Start sector | End sector --------------------------------------------------------- 1 | 0:00.00 | 4:52.48 | 0 | 21947 2 | 4:52.48 | 5:15.64 | 21948 | 45636 3 | 10:08.37 | 5:42.68 | 45637 | 71354 4 | 15:51.30 | 4:18.49 | 71355 | 90753 5 | 20:10.04 | 5:29.74 | 90754 | 115502 6 | 25:40.03 | 2:42.44 | 115503 | 127696 7 | 28:22.47 | 4:25.53 | 127697 | 147624 8 | 32:48.25 | 4:19.69 | 147625 | 167118 9 | 37:08.19 | 4:00.11 | 167119 | 185129 10 | 41:08.30 | 7:05.56 | 185130 | 217060
Track 1
Filename J:\New Rips\Charlie Mariano & Jerry Dodgian - Beauties Of 1918 (2011) [FLAC]\01 - After You've Gone.wav
Pre-gap length 0:00:02.00
Peak level 99.4 % Extraction speed 4.5 X Track quality 100.0 % Test CRC 7837F474 Copy CRC 7837F474 Track not present in AccurateRip database Copy OK
Track 2
Filename J:\New Rips\Charlie Mariano & Jerry Dodgian - Beauties Of 1918 (2011) [FLAC]\02 - When Johnny Comes Marching Home.wav
Pre-gap length 0:00:02.18
Peak level 99.2 % Extraction speed 5.2 X Track quality 100.0 % Test CRC D4D048B9 Copy CRC D4D048B9 Track not present in AccurateRip database Copy OK
Track 3
Filename J:\New Rips\Charlie Mariano & Jerry Dodgian - Beauties Of 1918 (2011) [FLAC]\03 - Deep River.wav
Pre-gap length 0:00:02.18
Peak level 99.6 % Extraction speed 5.8 X Track quality 100.0 % Test CRC 6786DE4E Copy CRC 6786DE4E Track not present in AccurateRip database Copy OK
Track 4
Filename J:\New Rips\Charlie Mariano & Jerry Dodgian - Beauties Of 1918 (2011) [FLAC]\04 - Till We Meet Again.wav
Pre-gap length 0:00:02.18
Peak level 99.9 % Extraction speed 5.0 X Track quality 99.9 % Test CRC 95BB038C Copy CRC 95BB038C Track not present in AccurateRip database Copy OK
Track 5
Filename J:\New Rips\Charlie Mariano & Jerry Dodgian - Beauties Of 1918 (2011) [FLAC]\05 - K-K-K-Katy.wav
Pre-gap length 0:00:02.18
Peak level 100.0 % Extraction speed 6.7 X Track quality 100.0 % Test CRC CC9BC842 Copy CRC CC9BC842 Track not present in AccurateRip database Copy OK
Track 6
Filename J:\New Rips\Charlie Mariano & Jerry Dodgian - Beauties Of 1918 (2011) [FLAC]\06 - 'Til The Clouds Roll By.wav
Pre-gap length 0:00:02.18
Peak level 100.0 % Extraction speed 6.4 X Track quality 100.0 % Test CRC 55BCA6B4 Copy CRC 55BCA6B4 Track not present in AccurateRip database Copy OK
Track 7
Filename J:\New Rips\Charlie Mariano & Jerry Dodgian - Beauties Of 1918 (2011) [FLAC]\07 - Over There.wav
Pre-gap length 0:00:02.18
Peak level 100.0 % Extraction speed 7.2 X Track quality 100.0 % Test CRC 5D3B1D6C Copy CRC 5D3B1D6C Track not present in AccurateRip database Copy OK
Track 8
Filename J:\New Rips\Charlie Mariano & Jerry Dodgian - Beauties Of 1918 (2011) [FLAC]\08 - Ja Da.wav
Pre-gap length 0:00:02.18
Peak level 100.0 % Extraction speed 7.5 X Track quality 100.0 % Test CRC 67B3C337 Copy CRC 67B3C337 Track not present in AccurateRip database Copy OK
Track 9
Filename J:\New Rips\Charlie Mariano & Jerry Dodgian - Beauties Of 1918 (2011) [FLAC]\09 - Hello Central Give Me No Man's Land.wav
Pre-gap length 0:00:02.18
Peak level 99.2 % Extraction speed 7.6 X Track quality 100.0 % Test CRC 0CD33614 Copy CRC 0CD33614 Track not present in AccurateRip database Copy OK
Track 10
Filename J:\New Rips\Charlie Mariano & Jerry Dodgian - Beauties Of 1918 (2011) [FLAC]\10 - Vamp's Blues.wav
Pre-gap length 0:00:02.18
Peak level 100.0 % Extraction speed 7.2 X Track quality 99.9 % Test CRC 5E0305F4 Copy CRC 5E0305F4 Track not present in AccurateRip database Copy OK
None of the tracks are present in the AccurateRip database
No errors occurred
End of status report
==== Log checksum 5752023E4346AA1BEE8A625FB5729359574B1C1901783428B4094718F0D06479 ====

Содержание индексной карты (.CUE)

REM GENRE JazzREM DATE 2011REM DISCID 6C0B4E0AREM COMMENT "ExactAudioCopy v1.0b1"PERFORMER "Charlie Mariano & Jerry Dodgian"TITLE "Beauties Of 1918"FILE "01 - After You've Gone.wav" WAVE TRACK 01 AUDIO TITLE "After You've Gone" PERFORMER "Charlie Mariano & Jerry Dodgian" INDEX 01 00:00:00 TRACK 02 AUDIO TITLE "When Johnny Comes Marching Home" PERFORMER "Charlie Mariano & Jerry Dodgian" INDEX 00 04:50:30FILE "02 - When Johnny Comes Marching Home.wav" WAVE INDEX 01 00:00:00 TRACK 03 AUDIO TITLE "Deep River" PERFORMER "Charlie Mariano & Jerry Dodgian" INDEX 00 05:13:46FILE "03 - Deep River.wav" WAVE INDEX 01 00:00:00 TRACK 04 AUDIO TITLE "Till We Meet Again" PERFORMER "Charlie Mariano & Jerry Dodgian" INDEX 00 05:40:50FILE "04 - Till We Meet Again.wav" WAVE INDEX 01 00:00:00 TRACK 05 AUDIO TITLE "K-K-K-Katy" PERFORMER "Charlie Mariano & Jerry Dodgian" INDEX 00 04:16:31FILE "05 - K-K-K-Katy.wav" WAVE INDEX 01 00:00:00 TRACK 06 AUDIO TITLE "'Til The Clouds Roll By" PERFORMER "Charlie Mariano & Jerry Dodgian" INDEX 00 05:27:56FILE "06 - 'Til The Clouds Roll By.wav" WAVE INDEX 01 00:00:00 TRACK 07 AUDIO TITLE "Over There" PERFORMER "Charlie Mariano & Jerry Dodgian" INDEX 00 02:40:26FILE "07 - Over There.wav" WAVE INDEX 01 00:00:00 TRACK 08 AUDIO TITLE "Ja Da" PERFORMER "Charlie Mariano & Jerry Dodgian" INDEX 00 04:23:35FILE "08 - Ja Da.wav" WAVE INDEX 01 00:00:00 TRACK 09 AUDIO TITLE "Hello, Central, Give Me No Man's Land" PERFORMER "Charlie Mariano & Jerry Dodgian" INDEX 00 04:17:51FILE "09 - Hello, Central, Give Me No Man's Land.wav" WAVE INDEX 01 00:00:00 TRACK 10 AUDIO TITLE "Vamp's Blues" PERFORMER "Charlie Mariano & Jerry Dodgian" INDEX 00 03:57:68FILE "10 - Vamp's Blues.wav" WAVE INDEX 01 00:00:00


[torrentc.info]_t_5523613.torrent
Торрент: Зарегистрирован ·  [ 2018-02-23 23:35 ] ·  dc5694ddede7af48ef16b6174de9290d4cd9e27a

14 KB

Статус: проверено
Скачан: 0 раз
Размер: 307 MB
Оценка: 
(Голосов: 0)
Сказали спасибо: 0  Спасибо
Похожие темы
[Профиль]    [ЛС]
Показать сообщения:    
Ответить на тему

Текущее время: Сегодня 02:31

Часовой пояс: GMT + 7



Вы не можете начинать темы
Вы не можете отвечать на сообщения
Вы не можете редактировать свои сообщения
Вы не можете удалять свои сообщения
Вы не можете голосовать в опросах
Вы не можете прикреплять файлы к сообщениям
Вы можете скачивать файлы