(Ethereal / Dream Pop / Shoegaze) [WEB] Ozean - Ozean (EP) (Remastered) - 2017 (1993), FLAC (tracks), lossless

Ответить на тему
Статистика раздачи [Обновить пиров]
Размер:  110 MB   |    Зарегистрирован:  8 месяцев 1 день   |    Скачан:  0 раз

Полного источника не было: Никогда

 
   
 
 
 
Автор Сообщение

torrentc.info

Создавать темы 17-Фев-2018 20:24

[Цитировать]

Ozean / Ozean
Жанр: Ethereal / Dream Pop / Shoegaze
Носитель: WEB
Год издания: 2017 (1993)
Издатель (лейбл): Moon Sounds Records
Номер по каталогу: MSR039
Страна исполнителя (группы): USA
Аудиокодек: FLAC (*.flac)
Тип рипа: tracks
Битрейт аудио: lossless
Продолжительность: 00:14:19
Источник (релизер): bandcamp.com
Наличие сканов в содержимом раздачи: нет
Трек-лист:
01. Scenic. (04:51)
02. Porcelain. (04:57)
03. Fall. (04:31)

Лог проверки качества

-----------------------
DON'T MODIFY THIS FILE
-----------------------
PERFORMER: auCDtect Task Manager, ver. 1.6.0 RC1 build 1.6.0.1Copyright (c) 2008-2010 y-soft. All rights reservedhttp://y-soft.org
ANALYZER: auCDtect: CD records authenticity detector, version 0.8.2Copyright (c) 2004 Oleg Berngardt. All rights reserved.Copyright (c) 2004 Alexander Djourik. All rights reserved.
FILE: 01. Scenic.flac Size: 38156369 Hash: E70F0D01D8CC7C702D8A00000F4A09A6 Accuracy: -m0 Conclusion: MPEG 89% Signature: 8B278C93E1842B0CE504EC51F632F31245B7B059FILE: 02. Porcelain.flac Size: 39884547 Hash: 8DEB05FE4E831CA19767905A18071F2D Accuracy: -m0 Conclusion: CDDA 49% Signature: F10BCFCA0D3977962D567A1E88A96BCC09D57309FILE: 03. Fall.flac Size: 36524566 Hash: F479941FE085141DD940E3F220E6AA36 Accuracy: -m0 Conclusion: MPEG 90% Signature: E187A7D9147CB5AA64E0EBD48D1C9EC69225D6B3

Замер динамического диапазона

foobar2000 1.3.4 / Замер динамического диапазона (DR) 1.1.1Дата отчёта: 2018-02-15 15:59:00
--------------------------------------------------------------------------------Анализ: Ozean / Ozean--------------------------------------------------------------------------------
DR Пики RMS Продолжительность трека--------------------------------------------------------------------------------DR7 -0.32 дБ -8.67 дБ 4:51 01-ScenicDR8 -0.34 дБ -9.19 дБ 4:57 02-PorcelainDR8 -0.35 дБ -8.98 дБ 4:31 03-Fall--------------------------------------------------------------------------------
Количество треков: 3Реальные значения DR: DR8
Частота: 44100 ГцКаналов: 2Разрядность: 16Битрейт: 1077 кбит/сКодек: FLAC================================================================================

Спектры

-

Press-release

While exiting a RIDE and Lush show in 1991, Eric Shea was handed a flyer that read, “Band seeking guitarist and singer. Influences include Slowdive, Cocteau Twins, Xmal Deutschland, The Byrds, Lush, Pale Saints.” Not even a week after calling the number listed below, Shea brought his Rickenbacker over to Mike Prosenko’s home. After admiring his vintage Fender Jaguar and talking about music, Shea and Prosenko plugged in and began creating the music that would become Ozean. Both musicians agreed that the songs they were writing called for a female singer with an otherworldly voice. Enter Lisa Baer. Influenced by the breathy cooing of Astrud Gilberto and the songs of The Jesus And Mary Chain, she was the perfect fit. The trio tried out various bass players and drummers to fill out their rhythm section after booking time with Michael Padilla to record their demo on his Fostex Model 80 1/4" 8-Track reel-to-reel tape recorder. They enlisted Mark Baldwin to infuse their demos with his Peter Hook inspired rhythmic talents before mixing to DAT and releasing a few private pressed cassettes to friends. As with many young bands of the early 1990s, Ozean disbanded too soon. But an accidental rediscovery of these 1992 recordings begged for a reissue. Unfortunately, the original DAT master was nowhere to be found. But thanks to Tim Green of Louder Studios, a remaster from one of the original cassettes is now available for download. (c)

Доп. информация

This reissue is dedicated to the memory of Mark Baldwin 1967 - 1997.
Previously released in 1993 as a limited edition cassette demo.

Состав

Lisa Baer - vocals.
Mike Prosenko - guitar.
Eric Shea - guitar.
Mark Baldwin - bass, drums.


[torrentc.info]_t_5521246.torrent
Торрент: Зарегистрирован ·  [ 2018-02-17 20:21 ] ·  103bd7f01dd7f8a8a4705d96fbc4d680baa39099

18 KB

Статус: проверено
Скачан: 0 раз
Размер: 110 MB
Оценка: 
(Голосов: 0)
Сказали спасибо: 0  Спасибо
Похожие темы
[Профиль]    [ЛС]
Показать сообщения:    
Ответить на тему

Текущее время: Сегодня 22:58

Часовой пояс: GMT + 7



Вы не можете начинать темы
Вы не можете отвечать на сообщения
Вы не можете редактировать свои сообщения
Вы не можете удалять свои сообщения
Вы не можете голосовать в опросах
Вы не можете прикреплять файлы к сообщениям
Вы можете скачивать файлы