(jazz, fusion) [CD] Jazz Efterratt - Nakousnuto - 2001, FLAC (tracks+.cue), lossless

Ответить на тему
Статистика раздачи [Обновить пиров]
Размер:  322 MB   |    Зарегистрирован:  4 месяца 27 дней   |    Скачан:  1 раз

Полного источника не было: 4 месяца 22 дня

 
   
 
 
 
Автор Сообщение

torrentc.info

Создавать темы 16-Фев-2018 21:23

[Цитировать]

Jazz Efterratt / Nakousnuto
Жанр: jazz, fusion
Носитель: CD
Год издания: 2001
Аудиокодек: FLAC (*.flac)
Тип рипа: tracks+.cue
Битрейт аудио: lossless
Продолжительность: 49:00
Источник (релизер): Свой рип
Наличие сканов в содержимом раздачи: да
Треклист:
01. Pavilon c. 8 (8:01)
02. I'm known for (3:40)
03. Take Five (Take Six) (6:29)
04. Aqua De BeBer (7:30)
05. Old Groove (5:55)
06. Soul Efterratt (6:18)
07. Lover Man (6:27)
08. Jam in C (4:41)

Лог создания рипа

Exact Audio Copy V1.3 from 2. September 2016
EAC extraction logfile from 12. February 2018, 17:23
Jazz Efterratt / Nakousnuto
Used drive : TEAC CD-W524E Adapter: 1 ID: 2
Read mode : SecureUtilize accurate stream : YesDefeat audio cache : YesMake use of C2 pointers : No
Read offset correction : 686Overread into Lead-In and Lead-Out : NoFill up missing offset samples with silence : YesDelete leading and trailing silent blocks : NoNull samples used in CRC calculations : YesUsed interface : Native Win32 interface for Win NT & 2000Gap handling : Appended to previous track
Used output format : User Defined EncoderSelected bitrate : 896 kBit/sQuality : HighAdd ID3 tag : NoCommand line compressor : C:\Program Files\Exact Audio Copy\FLAC\FLAC.EXEAdditional command line options : -8 -V -T "ARTIST=%artist%" -T "TITLE=%title%" -T "ALBUM=%albumtitle%" -T "DATE=%year%" -T "TRACKNUMBER=%tracknr%" -T "GENRE=%genre%" -T "COMMENT=%comment%" %hascover%--picture="%coverfile%"%hascover% %source% -o %dest%
TOC of the extracted CD
Track | Start | Length | Start sector | End sector --------------------------------------------------------- 1 | 0:00.00 | 8:01.05 | 0 | 36079 2 | 8:01.05 | 3:39.51 | 36080 | 52555 3 | 11:40.56 | 6:29.03 | 52556 | 81733 4 | 18:09.59 | 7:29.54 | 81734 | 115462 5 | 25:39.38 | 5:55.24 | 115463 | 142111 6 | 31:34.62 | 6:17.50 | 142112 | 170436 7 | 37:52.37 | 6:27.14 | 170437 | 199475 8 | 44:19.51 | 4:40.60 | 199476 | 220535
Track 1
Filename I:\CD_lossless_my\Jazz Efterratt - Nakousnuto (2001)\01. Jazz Efterratt - Pavilon c. 8.wav
Pre-gap length 0:00:02.00
Peak level 99.9 % Extraction speed 4.0 X Track quality 99.9 % Test CRC EBC25D71 Copy CRC EBC25D71 Track not present in AccurateRip database Copy OK
Track 2
Filename I:\CD_lossless_my\Jazz Efterratt - Nakousnuto (2001)\02. Jazz Efterratt - I´m known for.wav
Pre-gap length 0:00:02.00
Peak level 100.0 % Extraction speed 5.5 X Track quality 100.0 % Test CRC 157A9873 Copy CRC 157A9873 Track not present in AccurateRip database Copy OK
Track 3
Filename I:\CD_lossless_my\Jazz Efterratt - Nakousnuto (2001)\03. Jazz Efterratt - Take Five (Take Six).wav
Pre-gap length 0:00:04.19
Peak level 92.4 % Extraction speed 6.4 X Track quality 100.0 % Test CRC 88900492 Copy CRC 88900492 Track not present in AccurateRip database Copy OK
Track 4
Filename I:\CD_lossless_my\Jazz Efterratt - Nakousnuto (2001)\04. Jazz Efterratt - Aqua De BeBer.wav
Pre-gap length 0:00:01.00
Peak level 99.9 % Extraction speed 7.2 X Track quality 100.0 % Test CRC D9658052 Copy CRC D9658052 Track not present in AccurateRip database Copy OK
Track 5
Filename I:\CD_lossless_my\Jazz Efterratt - Nakousnuto (2001)\05. Jazz Efterratt - Old Groove.wav
Pre-gap length 0:00:00.47
Peak level 99.9 % Extraction speed 7.6 X Track quality 100.0 % Test CRC 91703F78 Copy CRC 91703F78 Track not present in AccurateRip database Copy OK
Track 6
Filename I:\CD_lossless_my\Jazz Efterratt - Nakousnuto (2001)\06. Jazz Efterratt - Soun Efterratt.wav
Pre-gap length 0:00:02.01
Peak level 99.9 % Extraction speed 7.6 X Track quality 100.0 % Test CRC AC63609B Copy CRC AC63609B Track not present in AccurateRip database Copy OK
Track 7
Filename I:\CD_lossless_my\Jazz Efterratt - Nakousnuto (2001)\07. Jazz Efterratt - Lover Man.wav
Pre-gap length 0:00:01.58
Peak level 82.4 % Extraction speed 8.0 X Track quality 100.0 % Test CRC DF0B3F66 Copy CRC DF0B3F66 Track not present in AccurateRip database Copy OK
Track 8
Filename I:\CD_lossless_my\Jazz Efterratt - Nakousnuto (2001)\08. Jazz Efterratt - Jam in C.wav
Pre-gap length 0:00:03.43
Peak level 82.5 % Extraction speed 7.8 X Track quality 100.0 % Test CRC 87B0D602 Copy CRC 87B0D602 Track not present in AccurateRip database Copy OK
None of the tracks are present in the AccurateRip database
No errors occurred
End of status report
---- CUETools DB Plugin V2.1.6
[CTDB TOCID: lRIRm_FwbWtclsF935a7Ed7jvoA-] disk not present in databaseSubmit result: lRIRm_FwbWtclsF935a7Ed7jvoA- has been uploaded
==== Log checksum 81FF2C0C807A64BFBEBB79C6B2ECA3FB12C753D233DF0C35541D0F5A8CC5186C ====

Содержание индексной карты (.CUE)

REM GENRE JazzREM DATE 2002REM DISCID 660B7C08REM COMMENT "ExactAudioCopy v1.3"PERFORMER "Jazz Efterratt"TITLE "Nakousnuto"REM COMPOSER ""FILE "01. Jazz Efterratt - Pavilon c. 8.flac" WAVE TRACK 01 AUDIO TITLE "Pavilon c. 8" PERFORMER "Jazz Efterratt" REM COMPOSER "" INDEX 01 00:00:00 TRACK 02 AUDIO TITLE "I.m known for" PERFORMER "Jazz Efterratt" REM COMPOSER "" INDEX 00 07:59:05FILE "02. Jazz Efterratt - I.m known for.flac" WAVE INDEX 01 00:00:00 TRACK 03 AUDIO TITLE "Take Five (Take Six)" PERFORMER "Jazz Efterratt" REM COMPOSER "" INDEX 00 03:35:32FILE "03. Jazz Efterratt - Take Five (Take Six).flac" WAVE INDEX 01 00:00:00 TRACK 04 AUDIO TITLE "Aqua De BeBer" PERFORMER "Jazz Efterratt" REM COMPOSER "" INDEX 00 06:28:03FILE "04. Jazz Efterratt - Aqua De BeBer.flac" WAVE INDEX 01 00:00:00 TRACK 05 AUDIO TITLE "Old Groove" PERFORMER "Jazz Efterratt" REM COMPOSER "" INDEX 00 07:29:07FILE "05. Jazz Efterratt - Old Groove.flac" WAVE INDEX 01 00:00:00 TRACK 06 AUDIO TITLE "Soun Efterratt" PERFORMER "Jazz Efterratt" REM COMPOSER "" INDEX 00 05:53:23FILE "06. Jazz Efterratt - Soul Efterratt.flac" WAVE INDEX 01 00:00:00 TRACK 07 AUDIO TITLE "Lover Man" PERFORMER "Jazz Efterratt" REM COMPOSER "" INDEX 00 06:15:67FILE "07. Jazz Efterratt - Lover Man.flac" WAVE INDEX 01 00:00:00 TRACK 08 AUDIO TITLE "Jam in C" PERFORMER "Jazz Efterratt" REM COMPOSER "" INDEX 00 06:23:46FILE "08. Jazz Efterratt - Jam in C.flac" WAVE INDEX 01 00:00:00
Доп. информация: Pavilon č. 8 - L. Chejn / Jazz Efterrätt, 7:59
I´m known for - Jazz Efterrätt / R. Williams, 3:35
Take Five (Take Six) - P. Desmond, 6:28
Aqua De BeBer - A.C. Jobim / B. Taupin, 7:29
Old Groove - Q. Jones, 5:53
Soul Efterrätt - Jazz Efterrätt, 6:15
Lover Man - Davis / Ramirez / Sherman, 6:23
Jam in C - Jazz Efterrätt, 4:40
www.jazzef.com

Состав

Lukáš Chejn - kytara, Tomáš Uhlík - bass, Lukáš Doksanský - bicí, Martin Hořejší - klávesy, Martin Plachý - sax, Ridina Ahmed - vocal


[torrentc.info]_t_5519989.torrent
Торрент: Зарегистрирован ·  [ 2018-02-16 21:21 ] ·  700dc05695b81e3db019a032cd40692501ef372c

14 KB

Статус: проверено
Скачан: 1 раз
Размер: 322 MB
Оценка: 
(Голосов: 0)
Сказали спасибо: 0  Спасибо
Похожие темы
[Профиль]    [ЛС]
Показать сообщения:    
Ответить на тему

Текущее время: Сегодня 09:57

Часовой пояс: GMT + 7



Вы не можете начинать темы
Вы не можете отвечать на сообщения
Вы не можете редактировать свои сообщения
Вы не можете удалять свои сообщения
Вы не можете голосовать в опросах
Вы не можете прикреплять файлы к сообщениям
Вы можете скачивать файлы