(Mainstream Jazz) [CD] The Buster Williams Trio LIVE (w/ Kenny Barron, Lenny White) - 65 Roses - 2009, FLAC (image+.cue), lossless

Ответить на тему
Статистика раздачи [Обновить пиров]
Размер:  285 MB   |    Зарегистрирован:  7 месяцев 2 дня   |    Скачан:  0 раз

Полного источника не было: Никогда

 
   
 
 
 
Автор Сообщение

torrentc.info

Создавать темы 16-Фев-2018 21:23

[Цитировать]

The Buster Williams Trio LIVE - 65 Roses
Жанр: Mainstream Jazz
Носитель: CD
Страна-производитель диска (релиза): USA
Год издания: 2009
Издатель (лейбл): BluePort
Страна исполнителя (группы): USA
Аудиокодек: FLAC (*.flac)
Тип рипа: image+.cue
Битрейт аудио: lossless
Продолжительность: 53:58
Источник (релизер): Datiko
Наличие сканов в содержимом раздачи: да
Треклист:
01 We See
02 Concierto de Aranjuez
03 Song for Abdullah
04 Related to One
05 Nikara's Song
06 Surrey with the Fringe on Top

Лог создания рипа

Exact Audio Copy V1.0 beta 6 from 9. April 2015
EAC extraction logfile from 13. February 2018, 10:48
65 Roses - Buster Williams Trio Live / Buster Williams Trio
Used drive : MATSHITADVD-RAM UJ8HC Adapter: 0 ID: 0
Read mode : SecureUtilize accurate stream : YesDefeat audio cache : YesMake use of C2 pointers : No
Read offset correction : 6Overread into Lead-In and Lead-Out : NoFill up missing offset samples with silence : YesDelete leading and trailing silent blocks : NoNull samples used in CRC calculations : YesUsed interface : Installed external ASPI interface
Used output format : User Defined EncoderSelected bitrate : 128 kBit/sQuality : HighAdd ID3 tag : NoCommand line compressor : C:\Program Files (x86)\Exact Audio Copy\Flac\flac.exeAdditional command line options : -V -8 -T "Date=%year%" -T "Genre=%genre%" %source%
TOC of the extracted CD
Track | Start | Length | Start sector | End sector --------------------------------------------------------- 1 | 0:00.00 | 9:31.63 | 0 | 42887 2 | 9:31.63 | 9:37.05 | 42888 | 86167 3 | 19:08.68 | 7:41.24 | 86168 | 120766 4 | 26:50.17 | 7:41.62 | 120767 | 155403 5 | 34:32.04 | 9:06.69 | 155404 | 196422 6 | 43:38.73 | 10:18.74 | 196423 | 242846
Range status and errors
Selected range
Filename E:\EAC\The Buster Williams Trio Live - 65 Roses\The Buster Williams Trio Live - 65 Roses.wav
Peak level 98.8 % Extraction speed 4.5 X Range quality 100.0 % Test CRC D272D2C4 Copy CRC D272D2C4 Copy OK
No errors occurred
AccurateRip summary
Track 1 accurately ripped (confidence 2) [BC36016A] (AR v2)Track 2 accurately ripped (confidence 2) [9041566E] (AR v2)Track 3 accurately ripped (confidence 2) [16BD0053] (AR v2)Track 4 accurately ripped (confidence 2) [2C373475] (AR v2)Track 5 accurately ripped (confidence 2) [45372AF1] (AR v2)Track 6 accurately ripped (confidence 2) [EE160B4D] (AR v2)
All tracks accurately ripped
End of status report
==== Log checksum 338F32DC5BBEE9D6E66254B125B5F3705EB951EACFD802881C482C7D243FBE47 ====

Содержание индексной карты (.CUE)

REM GENRE JazzREM DATE 2009REM DISCID 390CA506REM COMMENT "ExactAudioCopy v1.0b6"PERFORMER "65 Roses - Buster Williams Trio Live"TITLE "Buster Williams Trio"FILE "The Buster Williams Trio Live - 65 Roses.flac" WAVE TRACK 01 AUDIO TITLE "We See" PERFORMER "65 Roses - Buster Williams Trio Live" FLAGS DCP INDEX 01 00:00:00 TRACK 02 AUDIO TITLE "Concierto de Aranjuez" PERFORMER "65 Roses - Buster Williams Trio Live" FLAGS DCP INDEX 01 09:31:63 TRACK 03 AUDIO TITLE "Song for Abdullah" PERFORMER "65 Roses - Buster Williams Trio Live" FLAGS DCP INDEX 00 19:05:68 INDEX 01 19:08:68 TRACK 04 AUDIO TITLE "Related to One" PERFORMER "65 Roses - Buster Williams Trio Live" FLAGS DCP INDEX 00 26:47:17 INDEX 01 26:50:17 TRACK 05 AUDIO TITLE "Nikara's Song" PERFORMER "65 Roses - Buster Williams Trio Live" FLAGS DCP INDEX 00 34:28:04 INDEX 01 34:32:04 TRACK 06 AUDIO TITLE "Surrey with the Fringe on Top" PERFORMER "65 Roses - Buster Williams Trio Live" FLAGS DCP INDEX 01 43:38:73

Состав

Buster Williams - b
Kenny Barron - p
Lenny White - dr


[torrentc.info]_t_5520299.torrent
Торрент: Зарегистрирован ·  [ 2018-02-16 21:21 ] ·  0282dca3a2ea73d9b65ea4011eeef5cb6747c84d

12 KB

Статус: проверено
Скачан: 0 раз
Размер: 285 MB
Оценка: 
(Голосов: 0)
Сказали спасибо: 0  Спасибо
Похожие темы
[Профиль]    [ЛС]
Показать сообщения:    
Ответить на тему

Текущее время: Сегодня 02:30

Часовой пояс: GMT + 7



Вы не можете начинать темы
Вы не можете отвечать на сообщения
Вы не можете редактировать свои сообщения
Вы не можете удалять свои сообщения
Вы не можете голосовать в опросах
Вы не можете прикреплять файлы к сообщениям
Вы можете скачивать файлы