(Neoclassical, Darkwave) [CD] Arcana - The New Light + Petrichor (compilation) - 2017, FLAC (image+.cue), lossless

Ответить на тему
Статистика раздачи [Обновить пиров]
Размер:  746 MB   |    Зарегистрирован:  8 месяцев 7 дней   |    Скачан:  0 раз

Полного источника не было: Никогда

 
   
 
 
 
Автор Сообщение

torrentc.info

Создавать темы 10-Фев-2018 20:13

[Цитировать]

Arcana - (A Peter Bjärgö Project) The New Light + Petrichor (compilation)

Жанр: Neoclassical, Darkwave, Dark Ambient, Ambient, Modern Classical
Год издания: 2017 || Страна: Sweden
Продолжительность: 01:49:03 || © + ® Cyclic Law, 104th Cycle, 105th Cycle (limited edition of 500 copies) || Аудио кодек: FLAC (*.flac) || Тип рипа: image+.cue || Битрейт аудио: lossless || Источник: Собственные рипы с оригинальных дисков из личной коллекции || Страна-производитель диска (релиза)
: Poland || Наличие сканов в содержимом раздачи: да
Музыка, свободная от ярлыков. Бездна чужих откровений, поглощающая тебя без остатка…
Переиздание альбома The New Light. В оригинале он вышел в 2004 году и представлял собой сборник разного рода неиздававшегося (до 2004 года) материала. Издание 2017 года будет отличаться от оригинала — на нем можно услышать 2 новых эксклюзивных трека: записанную в 2015 году композицию с Идой Бенгтссон на вокале и кавер на песню This Big Hush британской группы SHRIEKBACK. Вторая новинка — альбом Petrichor. Он тоже является компиляцией — здесь собраны треки с ЕР и разных сборников. В переводе на русский язык Petrichor обозначает запах земли после дождя. Оба релиза представляют собой 6-ти панельные дигипаки с тиражом 500 штук.
Peter Bjärgö (Arcana) / Animus Retinentia
OnuS (Peter Bjärgö (Arcana) and Sal-Ocin / Proslambanomenos

Arcana - As Bright As A Thousand Suns (Limited Edition)
Arcana - «The First Era 1995-2002» Limited Edition Box Set 4CDs
Arcana - Dark Age Of Reason, CMI.43 - 1996
Arcana - Cantar De Procella, (CMI.55) - 1997
Arcana - ...The Last Embrace, CMI.79 - 2000
Arcana - Raspail, (KAL32) - 2008,
Peter Bjärgö (Arcana) - The Architecture Of Melancholy (2011)
Arcana - Emerald (CD-S, Limited Edition)

Petrichor (compilation) (104th Cycle) (59:38)

Tracklist:
01. Intro (02:23)
02. Emperor Of The Sun (03:26)
03. Eclipse Of The Soul (01:52)
04. Body Of Sin (04:24)
05. As Night Turns To Day (04:19)
06. Part I-II-III (15:48)
07. Part IV - A New Amber (05:35)
08. The Irreversible Truth - Raspail (04:29)
09. A Cage (04:59)
10. Precious Stone (04:40)
11. Dehkbala (03:06)
12. For Our Continuity (04:10)
Credits
Layout – Cecilia Bjärgö
Mastered By – Frederic Arbour*
Photography By – Cecilia Bjärgö, Peter Bjärgö
Written By, Recorded By, Mixed By – Peter Bjärgö
Notes
Selection of songs from various EP's and a gathering of compilation tracks.
Running Time: 59:38
2: Originally released on Lizabeth.
3: Originally released on Isabel.
4: Originally released on Body Of Sin.
5: Originally released on With Friends Like These....
6 and 7: Originally released on Un Passage Silencieux.
8: Originally released on Koumyou - Dark Artists For Japan Earthquake Relief.
9 and 10: Originally released on Emerald.
11: Originally released on Compilation For A Cat.
12: Originally released on Cycles: Cyclic Law's 10th Year Anniversary Label Sampler.
Limited Edition of 500 copies in 6 panel Digipak with matt lamination.

"Лог создания рипа CD II

Exact Audio Copy V1.3 from 2. September 2016
EAC extraction logfile from 5. January 2018, 17:40
Arcana / Petrichor (compilation)
Used drive : ASUS DRW-24B3LT Adapter: 1 ID: 0
Read mode : SecureUtilize accurate stream : YesDefeat audio cache : YesMake use of C2 pointers : No
Read offset correction : 6Overread into Lead-In and Lead-Out : NoFill up missing offset samples with silence : YesDelete leading and trailing silent blocks : NoNull samples used in CRC calculations : YesUsed interface : Native Win32 interface for Win NT & 2000
Used output format : Internal WAV RoutinesSample format : 44.100 Hz; 16 Bit; Stereo
TOC of the extracted CD
Track | Start | Length | Start sector | End sector --------------------------------------------------------- 1 | 0:00.00 | 2:25.67 | 0 | 10941 2 | 2:25.67 | 3:28.05 | 10942 | 26546 3 | 5:53.72 | 1:54.08 | 26547 | 35104 4 | 7:48.05 | 4:26.00 | 35105 | 55054 5 | 12:14.05 | 4:21.48 | 55055 | 74677 6 | 16:35.53 | 15:50.27 | 74678 | 145954 7 | 32:26.05 | 5:37.54 | 145955 | 171283 8 | 38:03.59 | 4:31.12 | 171284 | 191620 9 | 42:34.71 | 5:01.44 | 191621 | 214239 10 | 47:36.40 | 4:42.62 | 214240 | 235451 11 | 52:19.27 | 3:08.43 | 235452 | 249594 12 | 55:27.70 | 4:10.12 | 249595 | 268356
Range status and errors
Selected range
Filename D:\Osieron\My Documents\Desktop\Test&Copy\Arcana - Petrichor (compilation).wav
Peak level 99.9 % Extraction speed 6.0 X Range quality 100.0 % Test CRC 133A2228 Copy CRC 133A2228 Copy OK
No errors occurred
AccurateRip summary
Track 1 accurately ripped (confidence 1) [7F00547B] (AR v2)Track 2 accurately ripped (confidence 1) [C162D92D] (AR v2)Track 3 accurately ripped (confidence 1) [99259714] (AR v2)Track 4 accurately ripped (confidence 1) [F4C4D77C] (AR v2)Track 5 accurately ripped (confidence 1) [266A2A29] (AR v2)Track 6 accurately ripped (confidence 1) [6B712909] (AR v2)Track 7 accurately ripped (confidence 1) [1B49C0BD] (AR v2)Track 8 accurately ripped (confidence 1) [3DF85663] (AR v2)Track 9 accurately ripped (confidence 1) [3551BDA6] (AR v2)Track 10 accurately ripped (confidence 1) [F4F7C03F] (AR v2)Track 11 accurately ripped (confidence 1) [057C92BC] (AR v2)Track 12 accurately ripped (confidence 1) [153C1B51] (AR v2)
All tracks accurately ripped
End of status report
==== Log checksum 23DFF1437DB316C57AF69322CCD44587429FB185A69E8378D89DA74B316FD8C2 ====

Содержание индексной карты (.CUE)

REM GENRE "Neoclassical, Darkwave"REM DATE 2017REM DISCID B90DFA0CREM COMMENT "ExactAudioCopy v1.3"PERFORMER "Arcana"TITLE "Petrichor (compilation)"REM COMPOSER "Peter Bjargo"FILE "Arcana - Petrichor (compilation).wav" WAVE TRACK 01 AUDIO TITLE "Intro" PERFORMER "Arcana" REM COMPOSER "Peter Bjargo" INDEX 01 00:00:00 TRACK 02 AUDIO TITLE "Emperor Of The Sun" PERFORMER "Arcana" REM COMPOSER "Peter Bjargo" INDEX 00 02:23:67 INDEX 01 02:25:67 TRACK 03 AUDIO TITLE "Eclipse Of The Soul" PERFORMER "Arcana" REM COMPOSER "Peter Bjargo" INDEX 00 05:51:72 INDEX 01 05:53:72 TRACK 04 AUDIO TITLE "Body Of Sin" PERFORMER "Arcana" REM COMPOSER "Peter Bjargo" INDEX 00 07:46:05 INDEX 01 07:48:05 TRACK 05 AUDIO TITLE "As Night Turns To Day" PERFORMER "Arcana" REM COMPOSER "Peter Bjargo" INDEX 00 12:12:05 INDEX 01 12:14:05 TRACK 06 AUDIO TITLE "Part I-II-III" PERFORMER "Arcana" REM COMPOSER "Peter Bjargo" INDEX 00 16:33:53 INDEX 01 16:35:53 TRACK 07 AUDIO TITLE "Part IV - A New Amber" PERFORMER "Arcana" REM COMPOSER "Peter Bjargo" INDEX 00 32:24:05 INDEX 01 32:26:05 TRACK 08 AUDIO TITLE "The Irreversible Truth - Raspail" PERFORMER "Arcana" REM COMPOSER "Peter Bjargo" INDEX 00 38:01:59 INDEX 01 38:03:59 TRACK 09 AUDIO TITLE "A Cage" PERFORMER "Arcana" REM COMPOSER "Peter Bjargo" INDEX 00 42:32:71 INDEX 01 42:34:71 TRACK 10 AUDIO TITLE "Precious Stone" PERFORMER "Arcana" REM COMPOSER "Peter Bjargo" INDEX 00 47:34:40 INDEX 01 47:36:40 TRACK 11 AUDIO TITLE "Dehkbala" PERFORMER "Arcana" REM COMPOSER "Peter Bjargo" INDEX 00 52:17:27 INDEX 01 52:19:27 TRACK 12 AUDIO TITLE "For Our Continuity" PERFORMER "Arcana" REM COMPOSER "Peter Bjargo" INDEX 00 55:25:70 INDEX 01 55:27:70

Лог DRM

--------------------------------------------------------------------------------Анализ: Arcana / Petrichor (compilation)--------------------------------------------------------------------------------
DR Пики RMS Продолжительность трека--------------------------------------------------------------------------------DR8 -0.20 дБ -11.96 дБ 2:26 01-IntroDR8 -0.20 дБ -10.54 дБ 3:28 02-Emperor Of The SunDR7 -0.20 дБ -9.36 дБ 1:54 03-Eclipse Of The SoulDR8 -0.20 дБ -10.10 дБ 4:26 04-Body Of SinDR8 -0.20 дБ -9.98 дБ 4:22 05-As Night Turns To DayDR8 -0.20 дБ -9.64 дБ 15:50 06-Part I-II-IIIDR5 -2.13 дБ -8.82 дБ 5:38 07-Part IV - A New AmberDR8 -0.20 дБ -9.22 дБ 4:31 08-The Irreversible Truth - RaspailDR8 -0.20 дБ -9.63 дБ 5:02 09-A CageDR7 -0.20 дБ -9.11 дБ 4:43 10-Precious StoneDR8 -0.20 дБ -10.10 дБ 3:09 11-DehkbalaDR6 -0.01 дБ -7.53 дБ 4:10 12-For Our Continuity--------------------------------------------------------------------------------
Количество треков: 12Реальные значения DR: DR7
Частота: 44100 гцКаналов: 2Бит на сэмпл: 16Битрейт: 860 кбит/сКодек: FLAC================================================================================

Скриншот спектра частот

The New Light (compilation) Reissue [ReMastered] (105th Cycle) (49:24)

Tracklist:
01. The Opening (2:17)
02. Reminiscence (3:26)
03. Source Of Light (2:25)
04. Fade Away (3:50)
05. Wound (4:25)
06. Lament (5:37)
07. Prophecy Of The Inevitable (2:43)
08. Eclipse Of The Soul (1:53)
09. Like Statues In The Garden Of Dreaming (4:00)
10. Through The Grey Horizon (5:34)
11. Wings Of Gabriel (4:00)
Bonus Tracks:
12. This Big Hush (4:40)
13. Roots (4:05)
Companies, etc.
Mastered At – Erebus Odora
Credits
Layout – Cecilia Bjärgö
Photography By – Luise Bjärgö
Notes
Reissue, with previously unreleased material and new artwork.
All songs written and recorded between 1994-2016.
Track #1: Written in winter 2001.
Tracks #2 - #6: Unreleased demo 1994.
Track #7: Alt. recording 1998.
Track #8: Alt. recording 1999.
Track #9: Alt. recording 2003.
Tracks #10 + #11: Written in 2003.
Track #12 is a cover of the UK band Shriekback, recorded in 2005.
Track #13: Written in 2016, featuring original singer Ida Bengtsson.
Running Time: 49:24
Edition of 500 copies in 6-panel matt digipack.

Лог создания рипа

Exact Audio Copy V1.3 from 2. September 2016
EAC extraction logfile from 5. January 2018, 17:10
Arcana / The New Light (compilation)
Used drive : ASUS DRW-24B3LT Adapter: 1 ID: 0
Read mode : SecureUtilize accurate stream : YesDefeat audio cache : YesMake use of C2 pointers : No
Read offset correction : 6Overread into Lead-In and Lead-Out : NoFill up missing offset samples with silence : YesDelete leading and trailing silent blocks : NoNull samples used in CRC calculations : YesUsed interface : Native Win32 interface for Win NT & 2000
Used output format : Internal WAV RoutinesSample format : 44.100 Hz; 16 Bit; Stereo
TOC of the extracted CD
Track | Start | Length | Start sector | End sector --------------------------------------------------------- 1 | 0:00.00 | 2:19.53 | 0 | 10477 2 | 2:19.53 | 3:28.64 | 10478 | 26141 3 | 5:48.42 | 2:27.17 | 26142 | 37183 4 | 8:15.59 | 3:51.72 | 37184 | 54580 5 | 12:07.56 | 4:27.19 | 54581 | 74624 6 | 16:35.00 | 5:39.35 | 74625 | 100084 7 | 22:14.35 | 2:45.02 | 100085 | 112461 8 | 24:59.37 | 1:55.29 | 112462 | 121115 9 | 26:54.66 | 4:02.36 | 121116 | 139301 10 | 30:57.27 | 5:36.35 | 139302 | 164536 11 | 36:33.62 | 4:02.15 | 164537 | 182701 12 | 40:36.02 | 4:42.70 | 182702 | 203921 13 | 45:18.72 | 4:05.25 | 203922 | 222321
Range status and errors
Selected range
Filename D:\Osieron\My Documents\Desktop\Test&Copy\Arcana - The New Light (compilation).wav
Peak level 100.0 % Extraction speed 3.0 X Range quality 100.0 % Test CRC 4E7C7D36 Copy CRC 4E7C7D36 Copy OK
No errors occurred
AccurateRip summary
Track 1 not present in databaseTrack 2 not present in databaseTrack 3 not present in databaseTrack 4 not present in databaseTrack 5 not present in databaseTrack 6 not present in databaseTrack 7 not present in databaseTrack 8 not present in databaseTrack 9 not present in databaseTrack 10 not present in databaseTrack 11 not present in databaseTrack 12 not present in databaseTrack 13 not present in database
None of the tracks are present in the AccurateRip database
End of status report
==== Log checksum 893A1724E3A245F5F1E8842ED6C705C5B167B93D247684FE2C2DD283550FC092 ====

Содержание индексной карты (.CUE)

REM GENRE "Neoclassical, Darkwave"REM DATE 2017REM DISCID B50B940DREM COMMENT "ExactAudioCopy v1.3"PERFORMER "Arcana"TITLE "The New Light (compilation)"REM COMPOSER "Peter Bjargo"FILE "Arcana - The New Light (compilation).wav" WAVE TRACK 01 AUDIO TITLE "The Opening" PERFORMER "Arcana" REM COMPOSER "Peter Bjargo" INDEX 01 00:00:00 TRACK 02 AUDIO TITLE "Reminiscence" PERFORMER "Arcana" REM COMPOSER "Peter Bjargo" INDEX 00 02:17:53 INDEX 01 02:19:53 TRACK 03 AUDIO TITLE "Source Of Light" PERFORMER "Arcana" REM COMPOSER "Peter Bjargo" INDEX 00 05:46:42 INDEX 01 05:48:42 TRACK 04 AUDIO TITLE "Fade Away" PERFORMER "Arcana" REM COMPOSER "Peter Bjargo" INDEX 00 08:13:59 INDEX 01 08:15:59 TRACK 05 AUDIO TITLE "Wound" PERFORMER "Arcana" REM COMPOSER "Peter Bjargo" INDEX 00 12:05:56 INDEX 01 12:07:56 TRACK 06 AUDIO TITLE "Lament" PERFORMER "Arcana" REM COMPOSER "Peter Bjargo" INDEX 00 16:33:00 INDEX 01 16:35:00 TRACK 07 AUDIO TITLE "Prophecy Of The Inevitable" PERFORMER "Arcana" REM COMPOSER "Peter Bjargo" INDEX 00 22:12:35 INDEX 01 22:14:35 TRACK 08 AUDIO TITLE "Eclipse Of The Soul" PERFORMER "Arcana" REM COMPOSER "Peter Bjargo" INDEX 00 24:57:37 INDEX 01 24:59:37 TRACK 09 AUDIO TITLE "Like Statues In The Garden Of Dreaming" PERFORMER "Arcana" REM COMPOSER "Peter Bjargo" INDEX 00 26:52:66 INDEX 01 26:54:66 TRACK 10 AUDIO TITLE "Through The Grey Horizon" PERFORMER "Arcana" REM COMPOSER "Peter Bjargo" INDEX 00 30:55:27 INDEX 01 30:57:27 TRACK 11 AUDIO TITLE "Wings Of Gabriel" PERFORMER "Arcana" REM COMPOSER "Peter Bjargo" INDEX 00 36:31:62 INDEX 01 36:33:62 TRACK 12 AUDIO TITLE "This Big Hush (Bonus Track)" PERFORMER "Arcana" REM COMPOSER "Peter Bjargo" INDEX 00 40:34:02 INDEX 01 40:36:02 TRACK 13 AUDIO TITLE "Roots (Bonus Track)" PERFORMER "Arcana" REM COMPOSER "Peter Bjargo" INDEX 00 45:16:72 INDEX 01 45:18:72

Лог DRM

--------------------------------------------------------------------------------Анализ: Arcana / The New Light (compilation)--------------------------------------------------------------------------------
DR Пики RMS Продолжительность трека--------------------------------------------------------------------------------DR7 -4.30 дБ -14.86 дБ 2:20 01-The OpeningDR7 -0.09 дБ -10.09 дБ 3:29 02-ReminiscenceDR8 0.00 дБ -10.15 дБ 2:27 03-Source Of LightDR7 0.00 дБ -8.72 дБ 3:52 04-Fade AwayDR7 0.00 дБ -8.80 дБ 4:27 05-WoundDR9 -0.54 дБ -13.29 дБ 5:39 06-LamentDR7 -1.00 дБ -8.92 дБ 2:45 07-Prophecy Of The InevitableDR8 -0.40 дБ -10.30 дБ 1:55 08-Eclipse Of The SoulDR11 -0.50 дБ -13.53 дБ 4:02 09-Like Statues In The Garden Of DreamingDR9 -0.17 дБ -11.39 дБ 5:36 10-Through The Grey HorizonDR9 -0.02 дБ -11.11 дБ 4:02 11-Wings Of GabrielDR7 0.00 дБ -7.93 дБ 4:43 12-This Big Hush (Bonus Track)DR10 -0.01 дБ -13.58 дБ 4:05 13-Roots (Bonus Track)--------------------------------------------------------------------------------
Количество треков: 13Реальные значения DR: DR8
Частота: 44100 гцКаналов: 2Бит на сэмпл: 16Битрейт: 1411 кбит/сКодек: PCM================================================================================

Скриншот спектра частот

Scan preview

Reissue of this long sold out album, with previously unreleased material and new artwork. A compendium of lost songs from the early years and alternative recordings now spanning over 22 years since the inception of Arcana. Featuring 2 new exclusive bonus material, a unique piece recorded in 2015 featuring original singer Ida Bengtsson and a cover of the song “This Big Hush” by UK band Shriekback. Hear the music evolve from it's groping first steps to the powerfull statement it has become today. Arcana really stands for all things emotionally grandiose and this compendium serves has the perfect testament to a long and refined career. Petrichor, the strong scent that emerges from earth when rain has fallen. Compiled here are songs from Arcana’s various eps and a gathering of compilation tracks, songs that may have been forgotten, gathered now for the first time as a whole. Throughout the years, the music of Arcana has morphed sonically, through various instrumentations, production techniques and most importantly it’s members. This compendium is another prime example of Arcana’s multiple facets and ethereal sound.

Об исполнителе (группе)

erebusodora
discogs
facebook
vk
bandcamp
[url=https://en.wikipedia.org/wiki/Arcana_(Swedish_band)]Wikipedia[/url]
Google Play
Itunes

Об альбоме (сборнике)

8 ноября, вышел в свет новый альбом Arcana - Petrichor, что означает запах земли, после дождя.
Нового здесь, увы, ничего нет. Это, скорее антология ранее вышедших композиций с различных сборников и EP в период с 2004 года. В нашей группе все эти сборники мы, усилиями участников сообщества, выкладывали своевременно (VA - Cycles Cyclic Law's 10th year Anniversary Label Sampler (2012), Benefit for Animals in Need - 2012 и пр.)
Вместе с Petrichor вышло и переиздание первого подобного сборника - The New Light 2004 года. Помимо нового дизайна обложки, в The New Light вошли и две ранее не издававшиеся работы: записанную в 2015 году композицию с Идой Бенгтссон на вокале и кавер на песню This Big Hush британской группы SHRIEKBACK.

Состав

ARCANA
Peter Bjärgö
Founder of Arcana, born in 1974 in Eskilstuna. Sweden
Vocals, instruments, responsible for recordings, mixing and mastering.
On the side of Arcana, Peter also has the projects Sophia, Peter Bjärgö, Crypt of Kerberos, Meanwhile and more. Peter also records other band in his studio as well as produce other's albums, mixes and master. Otherwise he works as a personal assistent to his daughter Vendela.
Former members
Anmmari Thim
Born in 1976, Eskilstuna, Sweden
Lead vocalist and additional instruments.
Annmari works with her own projects Angelic Foe and Nightime Confession. She also collaborates with many different musicians across the world. Her daily work is promotion for a big international company.
Cecilia Bjärgö
Born in 1969, Stockholm, Sweden
Vocals and additional instruments. Also responsible for layouts and website and managing concerts. has collaborated with other artists such as In Slaughter Natives, Tamerlan and Narsillion. New member of Der Blaue Reiter in 2014.
Beside the music, Cecilia works with graphic designs and her own compositions. Otherwise she works full time as a techer in Social science and Music.
Mattias Borgh
Born 1975, Piteå, Sweden
Percussions and additional instruments.
Mattias is part of the band Crypt of Kerberos and others. Otherwise he works full time as a teacher in percussion in an upper secondary school.
Sergio Gamez Martinez and Núria Luis
Born in 1979 in Barcelona, Spain Keyboard and Violin
Núria and Sergio had the projects Narsilion, Der Blaue Reiter, Endless Asylum and Heura. Since autumn 2014, Sergi continues with the bands and Núria will collaborate with other musicians.
Ознакомившись, приобретайте, пожалуйста, оригинальную продукцию!!! Если не покупать диски, то совсем скоро нечего будет качать...
Все материалы представлены исключительно для ознакомления. Несанкционированное копирование, распространение и публичная демонстрация с целью извлечение коммерческой выгоды запрещены.


[torrentc.info]_t_5516326.torrent
Торрент: Зарегистрирован ·  [ 2018-02-10 20:07 ] ·  7157245392bca610ff479900bf94f748a7b723f0

18 KB

Статус: проверено
Скачан: 0 раз
Размер: 746 MB
Оценка: 
(Голосов: 0)
Сказали спасибо: 0  Спасибо
Похожие темы
[Профиль]    [ЛС]
Показать сообщения:    
Ответить на тему

Текущее время: Сегодня 07:47

Часовой пояс: GMT + 7



Вы не можете начинать темы
Вы не можете отвечать на сообщения
Вы не можете редактировать свои сообщения
Вы не можете удалять свои сообщения
Вы не можете голосовать в опросах
Вы не можете прикреплять файлы к сообщениям
Вы можете скачивать файлы