Я возвращаю ваш портрет (Владислав Виноградов) [1983, музыкальный, документальный, DVB]

Ответить на тему
Статистика раздачи [Обновить пиров]
Размер:  1.32 GB   |    Зарегистрирован:  10 месяцев 10 дней   |    Скачан:  0 раз

Полного источника не было: Никогда

 
   
 
 
 
Автор Сообщение

torrentc.info

Создавать темы 06-Фев-2018 20:21

[Цитировать]

Я возвращаю ваш портрет
Дата/Год выхода: 1983
Страна: СССР
Жанр: музыкальный, документальный
Продолжительность: 01:02:31
Перевод: Не требуется
Режиссер: Владислав Виноградов
Телеканал: Культура
Описание: Вступительное слово - Владислав Виноградов, советский и российский кинорежиссер-документалист.
История советской эстрадной песни. В квартире Леонида Утесова знаменитые эстрадные исполнители вспоминают, как все начиналось: первые записи, первые съемки, атмосферу, зрителя, весну своей молодости.
Ведущий - А. Миронов.
Доп. информация: В фильме принимали участие: Л. Утесов, К. Шульженко, А. Райкин, И. Юрьева, М. Миронова, Р. Зеленая, В. Высоцкий, А. Пугачева, Э. Пьеха, А. Варламов, Н. Богословский, М. Фрадкин, Ян Френкель, А. Алексеев, Л. Миров, М. Новицкий, П. Рудаков, В. Нечаев, В. Коралли, М. Водяной, З. Гердт, Ар. Астахов, Л. Давидович, А. Ревельс, Р. Ширман, Ю. Перепелкин, ансамбль "Машина времени".
качество: DVB
формат: TS
Видео: Mpeg Video AVC, 720x576, 4:3, 2670 Кбит/сек, 25 кадров/сек
Аудио: Mpeg Audio MP2, 192 kbps, 48Khz, 2ch

MediaInfo

ОбщееИдентификатор : 1 (0x1)Полное имя : H:\Я возвращаю ваш портрет RK (1983).tsФормат файла : MPEG-TSРазмер файла : 1,32 ГбайтПродолжительность : 1 ч. 2 м.Режим общего битрейта : ПеременныйОбщий поток : 3013 Кбит/сек
ВидеоИдентификатор : 1061 (0x425)Идентификатор меню : 1060 (0x424)Формат файла : AVCФормат файла/Информация : Advanced Video CodecПрофиль формата : Main@L3Параметр CABAC формата : ДаПараметр ReFrames формата : 3 кадраПараметр GOP формата : M=4, N=28Идентификатор кодека : 27Продолжительность : 1 ч. 2 м.Битрейт : 2670 Кбит/секШирина : 720 пикселейВысота : 576 пикселейСоотношение сторон : 4:3Частота кадров : 25,000 кадров/секСтандарт вещания : ComponentЦветовое пространство : YUVСубдискретизация насыщенности : 4:2:0Битовая глубина : 8 битТип развёртки : ЧересстрочнаяМетод сохранения типа развёртки : Раздельные поляПорядок развёртки : Верхнее поле первоеБит/(Пиксели*Кадры) : 0.258Размер потока : 1,17 Гбайт (89%)Цветовой диапазон : LimitedОсновные цвета : BT.601 PALХарактеристики трансфера : BT.470 System B, BT.470 System GКоэффициенты матрицы : BT.601
АудиоИдентификатор : 1062 (0x426)Идентификатор меню : 1060 (0x424)Формат файла : MPEG AudioВерсия формата : Version 1Профиль формата : Layer 2Идентификатор кодека : 3Продолжительность : 1 ч. 2 м.Вид битрейта : ПостоянныйБитрейт : 192 Кбит/секКаналы : 2 каналаЧастота : 48,0 КГцМетод сжатия : С потерямиРазмер потока : 85,9 Мбайт (6%)Язык : English

Скриншоты



[torrentc.info]_t_5514082.torrent
Торрент: Зарегистрирован ·  [ 2018-02-06 20:21 ] ·  eeaf41740652f37b9d7d065d2a60b3b0578c4f62

14 KB

Статус: проверено
Скачан: 0 раз
Размер: 1.32 GB
Оценка: 
(Голосов: 0)
Сказали спасибо: 0  Спасибо
Похожие темы
[Профиль]    [ЛС]
Показать сообщения:    
Ответить на тему

Текущее время: Сегодня 03:09

Часовой пояс: GMT + 7



Вы не можете начинать темы
Вы не можете отвечать на сообщения
Вы не можете редактировать свои сообщения
Вы не можете удалять свои сообщения
Вы не можете голосовать в опросах
Вы не можете прикреплять файлы к сообщениям
Вы можете скачивать файлы