Ночь любовных помешательств (Евгений Марчелли) [2008, театральная фантазия, WEB-DLRip] Омский государственный академический театр драмы

Ответить на тему
Статистика раздачи [Обновить пиров]
Размер:  2.18 GB   |    Зарегистрирован:  10 месяцев 11 дней   |    Скачан:  0 раз

Полного источника не было: Никогда

 
   
 
 
 
Автор Сообщение

torrentc.info

Создавать темы 30-Янв-2018 18:49

[Цитировать]

Ночь любовных помешательств Название театра: Омский государственный академический театр драмы.
Год выхода: 2008.
Жанр: театральная фантазия.
Продолжительность: 02:23:31.
Режиссер: заслуженный деятель искусств России Евгений Марчелли.
Действующие лица и исполнители:
Тезей, герцог Афинский - Вячеслав Малинин,
Эгей, отец Гермии - Вячеслав Корфидов,
Лизандр - Руслан Шапорин,
Деметрий - Сергей Черданцев,
Филострат - Владимир Авраменко,
Пигва, плотник - Инга Матис, Лариса Свиркова,
Миляга, столяр - Владимир Девятков, Егор Уланов,
Основа, ткач - народный артист России Валерий Алексеев,
Дудка, починщик раздувальных мехов - народный артист России Евгений Смирнов,
Рыло, медник - Олег Теплоухов,
Заморыш, портной - Владислав Пузырников,
Ипполита, царица амазонок - Анна Ходюн,
Гермия, влюбленная в Лизандра - Екатерина Крыжановская, Мария Мекаева,
Елена, влюбленная в Деметрия - Елена Шевчук, Наталья Рыбьякова,
Оберон, царь фей и эльфов - Владимир Майзингер,
Титания, царица фей и эльфов - Марина Кройтор, Екатерина Потапова,
Пэк, или Добрый Малый Робин, маленький эльф - заслуженный артист России Александр Гончарук,
Фея - заслуженная артистка России Татьяна Филоненко,
Эльфы:
Душистый Горошек - заслуженный артист России Юрий Музыченко,
Паутинка - Элеонора Кремель,
Мотылек - народная артистка России Наталья Василиади,
Горчичное Зерно - Татьяна Прокопьева,
Феи и эльфы - народная артистка России Валерия Прокоп, заслуженная артистка России Елизавета Романенко, Любовь Трандина.
Описание:
Театральная фантазия вокруг пьесы Вильяма Шекспира "Сон в летнюю ночь".
Знаменитая шекспировская комедия об изменчивости любви. Герои пьесы, пребывающие в озаренном луной зачарованном летнем лесу, становятся игрушками фортуны и совершают необычные, причудливые, экстравагантные поступки. Магия волшебного цветка, сок которого внушает человеку безоглядную любовь к первому встречному, становится причиной удивительных превращений и вереницы траги-комических недоразумений; однако власть могущественного короля эльфов Оберона приводит события, как и положено в комедии, к счастливому концу.

Дополнительная информация:
Страна: Россия .
Постановка и сценография: заслуженный деятель искусств России Евгений Марчелли.
Автор: Вильям Шекспир.
Художник по костюмам: Владимир Пономарев.
Музыкальное оформление: Игорь Есипович.
Хореография: Людмила Гурова.
Постановка танцевального номера: Геннадий Коробейников.
Балетмейстер: Зайтуна Смирнова.
[img]https://d.radikal.ru/d08/1801/b5/145888c7e11c.jpg[/img]

Рип sharky.

Качество видео:...WEB-DLRip
Формат файла:.................AVI
Видео:..704x528 (1.33:1), 25 fps, XviD build 47 ~2035 kbps avg, 0.22 bit/pixel
Аудио:..44.100 kHz, MPEG Layer 3, 2 ch, ~128.00 kbps avg

Отчет Media Info

General
Complete name : Noch.lyubovnyh.pomeshatel'stv_Omskij.GADT.2008.XviD.WEB-DLRip.fenixclub.avi
Format : AVI
Format/Info : Audio Video Interleave
Format profile : OpenDML
File size : 2.18 GiB
Duration : 2h 23mn
Overall bit rate : 2 170 Kbps
Writing application : VirtualDubMod 1.5.10.2 (build 2540/release)
Writing library : VirtualDubMod build 2540/release
Video
ID : 0
Format : MPEG-4 Visual
Format profile : Advanced Simple@L5
Format settings, BVOP : 1
Format settings, QPel : No
Format settings, GMC : No warppoints
Format settings, Matrix : Default (H.263)
Codec ID : XVID
Codec ID/Hint : XviD
Duration : 2h 23mn
Bit rate : 2 030 Kbps
Width : 704 pixels
Height : 528 pixels
Display aspect ratio : 4:3
Frame rate : 25.000 fps
Color space : YUV
Chroma subsampling : 4:2:0
Bit depth : 8 bits
Scan type : Progressive
Compression mode : Lossy
Bits/(Pixel*Frame) : 0.218
Stream size : 2.03 GiB (94%)
Writing library : XviD 1.2.0.dev47 (UTC 2006-11-01)
Audio
ID : 1
Format : MPEG Audio
Format version : Version 1
Format profile : Layer 3
Codec ID : 55
Codec ID/Hint : MP3
Duration : 2h 23mn
Bit rate mode : Constant
Bit rate : 128 Kbps
Channel(s) : 2 channels
Sampling rate : 44.1 KHz
Compression mode : Lossy
Stream size : 131 MiB (6%)
Alignment : Split accross interleaves
Interleave, duration : 40 ms (1.00 video frame)
Interleave, preload duratio : 500 ms
Writing library : LAME3.97
Encoding settings : -m s -V 4 -q 2 -lowpass 17 -b 128

Скриншоты




[torrentc.info]_t_5511100.torrent
Торрент: Зарегистрирован ·  [ 2018-01-30 18:49 ] ·  16c06eb797b32ddea00b976bc2a55ff4fdc66d12

11 KB

Статус: проверено
Скачан: 0 раз
Размер: 2.18 GB
Оценка: 
(Голосов: 0)
Сказали спасибо: 0  Спасибо
Похожие темы
[Профиль]    [ЛС]
Показать сообщения:    
Ответить на тему

Текущее время: Сегодня 22:52

Часовой пояс: GMT + 7



Вы не можете начинать темы
Вы не можете отвечать на сообщения
Вы не можете редактировать свои сообщения
Вы не можете удалять свои сообщения
Вы не можете голосовать в опросах
Вы не можете прикреплять файлы к сообщениям
Вы можете скачивать файлы