(Ethereal / Dream Pop / Ambient) [WEB] VA - Excelsis (A Dark Noël) - 1995, FLAC (tracks), lossless

Ответить на тему
Статистика раздачи [Обновить пиров]
Размер:  298 MB   |    Зарегистрирован:  7 месяцев 2 дня   |    Скачан:  0 раз

Полного источника не было: Никогда

 
   
 
 
 
Автор Сообщение

torrentc.info

Создавать темы 13-Янв-2018 23:10

[Цитировать]

VA - Excelsis (A Dark Noël)
Жанр: Ethereal / Dream Pop / Ambient
Носитель: WEB
Год издания: 1995
Издатель (лейбл): Projekt Records
Номер по каталогу: pro00062
Страна исполнителя (группы): International
Аудиокодек: FLAC (*.flac)
Тип рипа: tracks
Битрейт аудио: lossless
Продолжительность: 00:56:52
Источник (релизер): bandcamp.com
Наличие сканов в содержимом раздачи: нет
Трек-лист:
01. Arcanta - Carol of the Bells. (04:51)
02. Love Spirals Downwards - Welcome Christmas. (03:41)
03. FuchiKachis Ethu - Oh Come All Ye Faithful. (03:06)
04. This Ascension - Carol of the Bells. (02:32)
05. Area - O Come Emmanuel. (04:21)
06. Thanatos - The First Noel. (05:12)
07. Lovesliescrushing - Jingle Bells (Snowblower). (03:57)
08. Balderas & Osborne - What Child Is This? (03:48)
09. Black tape for a blue girl - Chanukkah, Oh Chanukkah. (03:38)
10. Lycia/The Unquiet Void - We Three Kings. (03:49)
11. Eva O - O Holy Night. (06:03)
12. Faith and the Muse - A Winter Wassail. (02:52)
13. Autopsia - Stille Nacht (g)RAVE remix. (05:33)
14. Attrition - Silent Night. (03:29)

Лог проверки качества

-----------------------
DON'T MODIFY THIS FILE
-----------------------
PERFORMER: auCDtect Task Manager, ver. 1.6.0 RC1 build 1.6.0.1Copyright (c) 2008-2010 y-soft. All rights reservedhttp://y-soft.org
ANALYZER: auCDtect: CD records authenticity detector, version 0.8.2Copyright (c) 2004 Oleg Berngardt. All rights reserved.Copyright (c) 2004 Alexander Djourik. All rights reserved.
FILE: 01. Arcanta - Carol of the Bells.flac Size: 27741239 Hash: 0DE60098133BB0C890A7B715B76C3C59 Accuracy: -m0 Conclusion: CDDA 99% Signature: 6E07F41696852DB44E3ED0666CE66F0C3A7B8D39FILE: 02. Love Spirals Downwards - Welcome Christmas.flac Size: 25773399 Hash: ADC16B81AFFB4ADBAF0CF795F6EBAE36 Accuracy: -m0 Conclusion: CDDA 100% Signature: 2253FB3C6AEF0AF4F5F9BBEA37559BCE77AAAECFFILE: 03. FuchiKachis Ethu - Oh Come All Ye Faithful.flac Size: 16852400 Hash: 84D8D8EEF2E6B50B6894EF5AC3205662 Accuracy: -m0 Conclusion: CDDA 100% Signature: 2B3C9608A7AE067742D522D566D1A3742AC5BA68FILE: 04. This Ascension - Carol of the Bells.flac Size: 16191291 Hash: D069C9FDBE96C1A8F6FBEBD4A51B7BC8 Accuracy: -m0 Conclusion: CDDA 99% Signature: 666C286AC76AF12C2F3E6F441E2FD97718BBDB66FILE: 05. Area - O Come Emmanuel.flac Size: 23816222 Hash: C2F0BC11E955345CC3B1E861931B53D3 Accuracy: -m0 Conclusion: CDDA 100% Signature: 5FBF2D82CCB495CE87AF6D0C1C61444722887E91FILE: 06. Thanatos - The First Noel.flac Size: 27103885 Hash: EFA742BD2DE2706400C2F7CDEC5D465E Accuracy: -m0 Conclusion: CDDA 100% Signature: 13A70966BD6702800A5728B5DC1B31A9E9105A12FILE: 07. Lovesliescrushing - Jingle Bells (Snowblower).flac Size: 22578539 Hash: CA6C458E00A59895BF216B6558686854 Accuracy: -m0 Conclusion: CDDA 100% Signature: 812B22B142D33BA1FA788F3DCAFAC0E7D1A67DF1FILE: 08. Balderas & Osborne - What Child Is This.flac Size: 22667271 Hash: 35DB92991E43E15E38DAAE80F5E2DF2D Accuracy: -m0 Conclusion: CDDA 100% Signature: 59C1FCDCC68F3C7AE18E5961433F3581AC0657BFFILE: 09. Black tape for a blue girl - Chanukkah, Oh Chanukkah.flac Size: 21222340 Hash: 4698C1DAB2EB72011FFD4E7057A410DB Accuracy: -m0 Conclusion: CDDA 100% Signature: 88E00BB210EA9EC93F29207EBA6FB4D09D2F5A6CFILE: 10. Lycia-The Unquiet Void - We Three Kings.flac Size: 21977464 Hash: AFF00CAB88595324DCEF363687AE723B Accuracy: -m0 Conclusion: CDDA 100% Signature: B54F13FF9FBA9D0455938160A4EFD03815EAECFFFILE: 11. Eva O - O Holy Night.flac Size: 30415238 Hash: AB8CC529982BFA74FB335D791D1F795F Accuracy: -m0 Conclusion: CDDA 100% Signature: 045D22B929B90942E21B8262A5976A7C4578EFE5FILE: 12. Faith and the Muse - A Winter Wassail.flac Size: 19315332 Hash: 6560D28A14F03CBA1AE2C6FD0BC3EF92 Accuracy: -m0 Conclusion: CDDA 100% Signature: 8439A9D8EB440CA4C86C88AB56E334A9F3F123C5FILE: 13. Autopsia - Stille Nacht (g)RAVE remix.flac Size: 21274742 Hash: 3D77096DCCDAEA302D07CCB56BBF6C4F Accuracy: -m0 Conclusion: CDDA 99% Signature: 2EF09BE8C593A4BBE3D8D82E70F6DAF15EE05E5EFILE: 14. Attrition - Silent Night.flac Size: 15473100 Hash: F39851543F5EFB52276DA8CFEDB1B038 Accuracy: -m0 Conclusion: CDDA 100% Signature: 938779147B919006B21D41141098F8514C824E73

Замер динамического диапазона

foobar2000 1.3.4 / Замер динамического диапазона (DR) 1.1.1
Дата отчёта: 2018-01-07 00:23:15
--------------------------------------------------------------------------------
Анализ: VA / Excelsis (A Dark Noël)
--------------------------------------------------------------------------------
DR Пики RMS Продолжительность трека
--------------------------------------------------------------------------------
DR11 -0.76 дБ -14.61 дБ 4:51 01-Carol of the Bells
DR10 0.00 дБ -12.72 дБ 3:41 02-Welcome Christmas
DR11 -0.21 дБ -14.05 дБ 3:06 03-Oh Come All Ye Faithful
DR13 0.00 дБ -16.14 дБ 2:32 04-Carol of the Bells
DR10 -3.65 дБ -16.08 дБ 4:21 05-O Come Emmanuel
DR13 -0.56 дБ -16.08 дБ 5:12 06-The First Noel
DR9 -2.23 дБ -13.83 дБ 3:57 07-Jingle Bells (Snowblower)
DR11 0.00 дБ -13.49 дБ 3:48 08-What Child Is This?
DR11 -0.44 дБ -14.76 дБ 3:38 09-Chanukkah, Oh Chanukkah
DR12 -0.82 дБ -16.96 дБ 3:49 10-We Three Kings
DR12 -0.27 дБ -17.66 дБ 6:03 11-O Holy Night
DR12 -1.81 дБ -17.55 дБ 2:52 12-A Winter Wassail
DR12 -2.43 дБ -17.84 дБ 5:33 13-Stille Nacht (g)RAVE remix
DR17 -0.42 дБ -18.81 дБ 3:29 14-Silent Night
--------------------------------------------------------------------------------
Количество треков: 14
Реальные значения DR: DR12
Частота: 44100 Гц
Каналов: 2
Разрядность: 16
Битрейт: 589 кбит/с
Кодек: FLAC
================================================================================
-

Press-release

This is the one that started it all! Projekt’s 1995 Holiday compilation. A classic!
Dark holiday tracks from all your favorites. Spend the holidays in style this year. No more barking dogs or Perry Como for you, uh-uh! While away the frigid hours until the important day with strains of Black Tape For A Blue Girl’s crusade “Chanukkah, Oh Chanukkah,” Lycia’s darkly sensual “We Three Kings,” Love Spirals Downwards’ “Welcome Christmas” (from the Grinch Who Stole Christmas), or Faith and the Muse bringing you the pagan madrigal “A Winter Wassail.” There’s also Arcanta’s “Carol of the Bells” (their first release on Projekt ever) and Attrition’s cut-up “Silent Night.” All graced by our lovely Dark Angel prepared to brighten many a dark holiday night. Spend the season right, this year. Turn down the lights . . . it’s a dark noel! (c)


[torrentc.info]_t_5503596.torrent
Торрент: Зарегистрирован ·  [ 2018-01-13 23:06 ] ·  2ff61a3a6f3b12a2ce18266f50ce19a6410b13bd

13 KB

Статус: проверено
Скачан: 0 раз
Размер: 298 MB
Оценка: 
(Голосов: 0)
Сказали спасибо: 0  Спасибо
Похожие темы
[Профиль]    [ЛС]
Показать сообщения:    
Ответить на тему

Текущее время: Сегодня 00:25

Часовой пояс: GMT + 7



Вы не можете начинать темы
Вы не можете отвечать на сообщения
Вы не можете редактировать свои сообщения
Вы не можете удалять свои сообщения
Вы не можете голосовать в опросах
Вы не можете прикреплять файлы к сообщениям
Вы можете скачивать файлы