Ritchie Blackmore\'s Rainbow - Coloring New Jersey (live 01.12.1979) [2014, Hard Rock, DVD5]

Ответить на тему
Статистика раздачи [Обновить пиров]
Размер:  4.21 GB   |    Зарегистрирован:  10 месяцев 28 дней   |    Скачан:  2 раза

Полного источника не было: 7 месяцев 23 дня

 
   
 
 
 
Автор Сообщение

torrentc.info

Создавать темы 13-Янв-2018 23:01

[Цитировать]

Ritchie Blackmore's Rainbow - Coloring New Jersey (live 01.12.1979)
Страна: Great Britain
Жанр: Hard Rock
Продолжительность: 01:16:08
Год выхода: 2014
Лейбл: Music Vault
Описание: Концерт Ritchie Blackmore's Rainbow в г. Пассаик, штат Нью-Джерси, 1 декабря 1979 года
Состав группы:
Ritchie Blackmore - гитара
Graham Bonnet - вокал
Don Airey - клавишные
Roger Glover - бас-гитара
Cozy Powell - ударные
Треклист:
01. Eyes of the World
02. Love's no Friend
03. Maybe Next Time
04. All Night Long
05. Lost In Hollywood
06. Lazy (short) / Man On The Silver Mountain
07. Blues
08. Long Live Rock 'n' Roll
09. Kill The King (jam) / Long Live Rock 'n' Roll (Reprise) - 6:47
Доп. информация: Изображение чёрно-белое, качество звука среднее
Разбивка на главы по трекам: есть
Качество : DVD5
Формат файла: DVD video
Видео кодек: MPEG2
Видео: MPEG2 Video 720x480 (4:3) 29.97fps [V: mpeg2 main, yuv420p, 720x480]
Аудио: LPCM 48000Hz stereo 1536kbps [A: pcm_dvd, 48000 Hz, 2 channels, s16, 1536 kb/s]

DVDinfo

GeneralComplete name : D:\Video\Music\Rainbow\Coloring New Jersey (DVD5)\VIDEO_TS\VTS_01_1.VOBFormat : MPEG-PSFile size : 1 024 MiBDuration : 18 min 46 sOverall bit rate mode : VariableOverall bit rate : 7 621 kb/s
VideoID : 224 (0xE0)Format : MPEG VideoFormat version : Version 2Format profile : Main@MainFormat settings : CustomMatrix / BVOPFormat settings, BVOP : YesFormat settings, Matrix : CustomFormat settings, GOP : M=3, N=15Duration : 18 min 46 sBit rate mode : VariableBit rate : 5 933 kb/sMaximum bit rate : 8 000 kb/sWidth : 720 pixelsHeight : 480 pixelsDisplay aspect ratio : 4:3Frame rate : 29.970 (30000/1001) FPSStandard : NTSCColor space : YUVChroma subsampling : 4:2:0Bit depth : 8 bitsScan type : ProgressiveCompression mode : LossyBits/(Pixel*Frame) : 0.573Time code of first frame : 00:00:00:00Time code source : Group of pictures headerGOP, Open/Closed : ClosedStream size : 797 MiB (78%)Color primaries : BT.601 NTSCTransfer characteristics : BT.601Matrix coefficients : BT.601
AudioID : 189 (0xBD)-160 (0xA0)Format : PCMFormat settings : Big / SignedMuxing mode : DVD-VideoDuration : 18 min 46 sBit rate mode : ConstantBit rate : 1 536 kb/sChannel(s) : 2 channelsSampling rate : 48.0 kHzBit depth : 16 bitsStream size : 206 MiB (20%)
Menu

Скриншоты меню

Скриншоты



[torrentc.info]_t_5504944.torrent
Торрент: Зарегистрирован ·  [ 2018-01-13 23:00 ] ·  9aacf60cd24b6213cb15b874f2dfe45fdb8680f4

12 KB

Статус: проверено
Скачан: 2 раз
Размер: 4.21 GB
Оценка: 
(Голосов: 0)
Сказали спасибо: 0  Спасибо
Похожие темы
[Профиль]    [ЛС]
Показать сообщения:    
Ответить на тему

Текущее время: Сегодня 16:58

Часовой пояс: GMT + 7



Вы не можете начинать темы
Вы не можете отвечать на сообщения
Вы не можете редактировать свои сообщения
Вы не можете удалять свои сообщения
Вы не можете голосовать в опросах
Вы не можете прикреплять файлы к сообщениям
Вы можете скачивать файлы