Арнольд Уэскер: Кухня (Кирилл Пирогов) [2014, трагикомедия, DVB-AVC] Театральный институт им. Бориса Щукина при ГАТ им. Евг. Вахтангова

Ответить на тему
Статистика раздачи [Обновить пиров]
Размер:  1012 MB   |    Зарегистрирован:  5 месяцев 9 дней   |    Скачан:  0 раз

Полного источника не было: Никогда

Личеров:  1  [  0 KB/s  ]   Подробная статистика скачивающих
 
   
 
 
 
Автор Сообщение

torrentc.info

Создавать темы 08-Янв-2018 22:54

[Цитировать]

Кухня
Арнольд Уэскер- Название театра: Театральный институт им. Бориса Щукина при ГАТ им. Евг. Вахтангова
Жанр: трагикомедия
Год выхода: 2014
Продолжительность: 01:29:12
Режиссёр-постановщик: Кирилл Пирогов
В ролях: Павел Яковлев, Сергей Шаталов, Артем Блинов, Александр Волочинко, Максим Бойцов, Федор Бавтриков, Владислав Дорофеев, Константин Белошапка, Максим Туранцев, Денис Самойлов, Тимофей Миркин, Андрей Удалов, Нина Амелина, Ася Домская, Ксения Иванова, Ксения Кубасова, Виктория Коваленко, Ангелина Римашевская
Описание: постановка пьесы британского драматурга Арнольда Уэскера / Arnold Wesker "Кухня / The Kitchen" (1957).
Автор пьесы, А. Уэскер — из поколения английских "сердитых молодых людей" 50-60-х годов прошлого века. Персонажи его пьесы, и, соответственно, герои кухонного спектакля сердиты на жизнь, точнее, на работу, а работают они все на кухне ресторана. Эти молодые люди, повара, подсобные рабочие, официантки — не бунтари, они — наёмные работники на предприятии, они работают с утра до вечера, а спектакль представляет собой один рабочий день ресторанной кухни.
Доп. информация: Intelsat 15 (85.0°E) Телеканал "Театр" DVB-S

Качество видео: DVB-AVC
Формат файла: MKV
Видео: AVC (H.264), 720x576 (16:9), 25 fps, ~1394 kbps avg, 0.134 bit/pixel
Аудио: MPEG Audio 2, 2 ch, 48 kHz, 160 kbps

MediaInfo

GeneralUnique ID : 70167782310530667370554962458327383894 (0x34C9D2C4555841C99991A2CB1BAFFF56)Complete name : [apreder]The_Kitchen(2014)DVB.mkvFormat : MatroskaFormat version : Version 2File size : 1 012 MiBDuration : 1 h 29 minOverall bit rate : 1 586 kb/sMovie name : КухняReleased date : 2014-00-00Encoded date : UTC 2018-01-04 10:05:35Writing application : mkvmerge v19.0.0 ('Brave Captain') 64-bitWriting library : libebml v1.3.5 + libmatroska v1.4.8Cover : YesAttachments : cover.jpg / small_cover.jpgDIRECTOR : Кирилл ПироговGENRE : Comedy, DramaKEYWORDS : TorrentcLAW_RATING : 16+
VideoID : 1Format : AVCFormat/Info : Advanced Video CodecFormat profile : Main@L3Format settings : CABAC / 3 Ref FramesFormat settings, CABAC : YesFormat settings, RefFrames : 3 framesCodec ID : V_MPEG4/ISO/AVCDuration : 1 h 29 minBit rate : 1 394 kb/sWidth : 720 pixelsHeight : 576 pixelsDisplay aspect ratio : 16:9Original display aspect ratio : 16:9Frame rate mode : ConstantFrame rate : 25.000 FPSStandard : ComponentColor space : YUVChroma subsampling : 4:2:0Bit depth : 8 bitsScan type : InterlacedScan type, store method : Separated fieldsScan order : Top Field FirstBits/(Pixel*Frame) : 0.134Stream size : 890 MiB (88%)Default : YesForced : NoColor range : LimitedColor primaries : BT.601 PALTransfer characteristics : BT.470 System B, BT.470 System GMatrix coefficients : BT.470 System B, BT.470 System G
AudioID : 2Format : MPEG AudioFormat version : Version 1Format profile : Layer 2Codec ID : A_MPEG/L2Codec ID/Hint : MP2Duration : 1 h 29 minBit rate mode : ConstantBit rate : 160 kb/sChannel(s) : 2 channelsSampling rate : 48.0 kHzCompression mode : LossyDelay relative to video : 16 msStream size : 102 MiB (10%)Language : RussianDefault : YesForced : No

Скриншот с названием постановки

Скриншоты


Резервные скриншоты


- [4'020]


[torrentc.info]_t_5502366.torrent
Торрент: Зарегистрирован ·  [ 2018-01-08 22:54 ] ·  3354e8a51078db7caf849185b0851ec159ad1637

10 KB

Статус: проверено
Скачан: 0 раз
Размер: 1012 MB
Оценка: 
(Голосов: 0)
Сказали спасибо: 0  Спасибо
Похожие темы
[Профиль]    [ЛС]
Показать сообщения:    
Ответить на тему

Текущее время: Сегодня 10:54

Часовой пояс: GMT + 7



Вы не можете начинать темы
Вы не можете отвечать на сообщения
Вы не можете редактировать свои сообщения
Вы не можете удалять свои сообщения
Вы не можете голосовать в опросах
Вы не можете прикреплять файлы к сообщениям
Вы можете скачивать файлы