Дневники Мэрилин / Marilyn Intime (Эммануэль Фор / Emmanuel Faure, Салли Микалефф / Sally Micaleff) [2016, Франция, драма, DVB] [Theatre du Chene Noir] Original (Fre) + Sub (Rus, Eng, Fre, Deu)

Ответить на тему
Статистика раздачи [Обновить пиров]
Размер:  1.46 GB   |    Зарегистрирован:  11 месяцев 1 день   |    Скачан:  1 раз

Полного источника не было: 2 месяца 20 дней

 
   
 
 
 
Автор Сообщение

torrentc.info

Создавать темы 08-Янв-2018 22:54

[Цитировать]

Дневники Мэрилин
Marilyn Intime- Название театра: Théâtre du Chêne Noir (Avignon)
Страна: Франция
Жанр: драма
Год выхода: 2016
Продолжительность: 01:03:20
Перевод: Субтитры (русский перевод И.Рыбкиной, ECLAIR)
Субтитры: русские, английские, французские, немецкие, нидерландские
Оригинальная аудиодорожка: французский
Режиссёр: Эммануэль Фор / Emmanuel Faure
Режиссёр-постановщик: Салли Микалефф / Sally Micaleff
В ролях: Клер Боротра / Claire Borotra
Описание: Клэр Боротра воссоздает фрагменты дневников Мэрилин Монро. Она показывает потрясающий портрет простой и измученной женщины, звезды, ставшей жертвой собственных демонов.
Доп. информация: Hot Bird (13.0°E) TV5MONDE Europe DVB-S. Запись спектакля, состоявшегося 26.07.2016 в Théâtre du Chêne Noir (Avignon).

Качество видео: DVB
Формат файла: MKV
Видео: MPEG Video 2, 720x576@1024x576 (16:9), 25 fps, ~3040 kbps avg, 0.293 bit/pixel
Аудио: MPEG Audio 2, 2 ch, 48 kHz, 192 kbps - французский
Формат файла субтитров: отключаемые (SRT)

Пример субтитров

100:00:07,520 --> 00:00:10,520ДНЕВНИКИ МЭРИЛИН
200:00:40,356 --> 00:00:44,403И что они так носятся с моейфотографией в календаре!
300:00:44,403 --> 00:00:46,400Что в ней такого?
400:00:46,400 --> 00:00:49,875Я всегда была лишь телом.
500:00:49,875 --> 00:00:54,356С самого рожденияя всего лишь тело, предмет.
600:00:54,356 --> 00:00:57,846Который ставят, переставляют,берут, щупают, бросают,
700:00:57,846 --> 00:00:59,075любят,
800:00:59,075 --> 00:01:01,123отвергают.
900:01:01,123 --> 00:01:04,317Одевают, раздевают,украшают,
1000:01:04,317 --> 00:01:05,796желают.
1100:01:05,796 --> 00:01:08,006Показывают друзьям,
1200:01:08,006 --> 00:01:10,318выставляют напоказ.
1300:01:10,318 --> 00:01:13,193Роскошное тело.
1400:01:13,642 --> 00:01:15,433Сиротка
1500:01:15,433 --> 00:01:17,647всегда была плохо одета.
1600:01:17,647 --> 00:01:21,154Серая форма,поношенные платья.
1700:01:21,154 --> 00:01:23,886Бедность чувствовалась во всем.
1800:01:23,886 --> 00:01:27,438Только голой я забывалао своем сиротстве.
1900:01:27,438 --> 00:01:30,007Мое тело освобождалосьот историй,
2000:01:30,007 --> 00:01:31,632боли.

MediaInfo

GeneralUnique ID : 1041003179944851048981050006839977464 (0xC87D6B5FB86E7C5C2BA27BA53765F8)Complete name : [apreder]Marilyn_Intime(2016)DVB.mkvFormat : MatroskaFormat version : Version 2File size : 1.46 GiBDuration : 1 h 3 minOverall bit rate mode : VariableOverall bit rate : 3 298 kb/sMovie name : Marilyn IntimeReleased date : 2016-00-00Encoded date : UTC 2018-01-06 10:39:03Writing application : mkvmerge v19.0.0 ('Brave Captain') 64-bitWriting library : libebml v1.3.5 + libmatroska v1.4.8Cover : YesAttachments : cover.jpg / small_cover.jpgACTOR : Claire BorotraDIRECTOR : Sally Micaleff, Emmanuel FaureGENRE : DramaKEYWORDS : TorrentcLAW_RATING : 16+
VideoID : 1Format : MPEG VideoFormat version : Version 2Format profile : Main@MainFormat settings : CustomMatrix / BVOPFormat settings, BVOP : YesFormat settings, Matrix : CustomFormat settings, GOP : M=4, N=12Format settings, picture structure : FrameCodec ID : V_MPEG2Codec ID/Info : MPEG 1 or 2 VideoDuration : 1 h 3 minBit rate mode : VariableBit rate : 3 040 kb/sMaximum bit rate : 15.0 Mb/sWidth : 720 pixelsHeight : 576 pixelsDisplay aspect ratio : 16:9Active Format Description : Letterbox 16:9 imageFrame rate mode : ConstantFrame rate : 25.000 FPSStandard : PALColor space : YUVChroma subsampling : 4:2:0Bit depth : 8 bitsScan type : InterlacedScan order : Top Field FirstCompression mode : LossyBits/(Pixel*Frame) : 0.293Stream size : 1.34 GiB (92%)Default : YesForced : No
AudioID : 2Format : MPEG AudioFormat version : Version 1Format profile : Layer 2Format settings : Joint stereo / Intensity Stereo + MS StereoCodec ID : A_MPEG/L2Codec ID/Hint : MP2Duration : 1 h 3 minBit rate mode : ConstantBit rate : 192 kb/sChannel(s) : 2 channelsSampling rate : 48.0 kHzCompression mode : LossyStream size : 87.0 MiB (6%)Language : FrenchDefault : YesForced : No
Text #1ID : 3Format : UTF-8Codec ID : S_TEXT/UTF8Codec ID/Info : UTF-8 Plain TextLanguage : RussianDefault : NoForced : No
Text #2ID : 4Format : UTF-8Codec ID : S_TEXT/UTF8Codec ID/Info : UTF-8 Plain TextLanguage : EnglishDefault : NoForced : No
Text #3ID : 5Format : UTF-8Codec ID : S_TEXT/UTF8Codec ID/Info : UTF-8 Plain TextLanguage : FrenchDefault : NoForced : No
Text #4ID : 6Format : UTF-8Codec ID : S_TEXT/UTF8Codec ID/Info : UTF-8 Plain TextLanguage : GermanDefault : NoForced : No
Text #5ID : 7Format : UTF-8Codec ID : S_TEXT/UTF8Codec ID/Info : UTF-8 Plain TextLanguage : DutchDefault : NoForced : No

Скриншот с названием постановки

- [4'030]


[torrentc.info]_t_5503246.torrent
Торрент: Зарегистрирован ·  [ 2018-01-08 22:54 ] ·  7f22ffcb57457c1d31997b1b028249d7420f1d81

15 KB

Статус: проверено
Скачан: 1 раз
Размер: 1.46 GB
Оценка: 
(Голосов: 0)
Сказали спасибо: 1  Спасибо   (список)
Похожие темы
[Профиль]    [ЛС]
Показать сообщения:    
Ответить на тему

Текущее время: Сегодня 22:21

Часовой пояс: GMT + 7



Вы не можете начинать темы
Вы не можете отвечать на сообщения
Вы не можете редактировать свои сообщения
Вы не можете удалять свои сообщения
Вы не можете голосовать в опросах
Вы не можете прикреплять файлы к сообщениям
Вы можете скачивать файлы