(Metal) [CD] VA - Lords Of This World - A Tribute To Black Sabbath - 2017, FLAC (image+.cue), lossless

Ответить на тему
Статистика раздачи [Обновить пиров]
Размер:  450 MB   |    Зарегистрирован:  9 месяцев 16 дней   |    Скачан:  0 раз

Полного источника не было: Никогда

 
   
 
 
 
Автор Сообщение

torrentc.info

Создавать темы 04-Янв-2018 23:01

[Цитировать]

Lords Of This World - A Tribute To Black Sabbath
Жанр: Metal
Носитель: CD
Страна-производитель диска (релиза): Greece
Год издания: 2017
Издатель (лейбл): Metal Hammer & Heavy Metal
Номер по каталогу: MH388
Аудиокодек: FLAC (*.flac)
Тип рипа: image+.cue
Битрейт аудио: lossless
Продолжительность: 01:14:49
Источник (релизер): vondur-live-1945 ( спасибо )
Наличие сканов в содержимом раздачи: да
Треклист:
01 - NIGHTSTALKER - Sweet Leaf
02 - MOTHER OF MILLIONS - Children Of The Grave
03 - HAIL SPIRIT NOIR - Changes
04 - ROCK 'N' ROLL CHILDREN - Falling Off The Edge Of The World
05 - WARDRUM - Headless Cross
06 - NAYA - Laguna Sunrise
07 - ILLUSORY - The Mob Rules
08 - BLACK JUJU - Who Are You
09 - ZEMIAL - The Sign Of The Southern Cross
10 - ENDOMAIN - Die Young
11 - THE SLAYERKING - War Pigs
12 - NAXATRAS - Planet Caravan
13 - ROTTING CHRIST - Black Sabbath
14 - METAL HAMMER AND HEAVY METAL EDITORS - N.I.B.

Лог создания рипа

Exact Audio Copy V0.99 prebeta 5 from 4. May 2009
EAC extraction logfile from 18. December 2017, 7:08
Various Artists / Lords Of This World - A Tribute To Black Sabbath
Used drive : HL-DT-STDVDRAM GP30NB40 Adapter: 2 ID: 0
Read mode : SecureUtilize accurate stream : YesDefeat audio cache : YesMake use of C2 pointers : No
Read offset correction : 6Overread into Lead-In and Lead-Out : NoFill up missing offset samples with silence : YesDelete leading and trailing silent blocks : NoNull samples used in CRC calculations : YesUsed interface : Installed external ASPI interface
Used output format : User Defined EncoderSelected bitrate : 1024 kBit/sQuality : HighAdd ID3 tag : NoCommand line compressor : C:\Program Files\Exact Audio Copy\FLAC\FLAC.EXEAdditional command line options : -V -8 -T "artist=%a" -T "title=%t" -T "album=%g" -T "date=%y" -T "tracknumber=%n" -T "genre=%m" %s
TOC of the extracted CD
Track | Start | Length | Start sector | End sector --------------------------------------------------------- 1 | 0:00.00 | 5:02.48 | 0 | 22697 2 | 5:02.48 | 5:02.00 | 22698 | 45347 3 | 10:04.48 | 4:10.53 | 45348 | 64150 4 | 14:15.26 | 5:22.69 | 64151 | 88369 5 | 19:38.20 | 6:05.27 | 88370 | 115771 6 | 25:43.47 | 2:55.19 | 115772 | 128915 7 | 28:38.66 | 3:04.73 | 128916 | 142788 8 | 31:43.64 | 5:18.17 | 142789 | 166655 9 | 37:02.06 | 9:15.70 | 166656 | 208350 10 | 46:18.01 | 3:39.47 | 208351 | 224822 11 | 49:57.48 | 7:03.31 | 224823 | 256578 12 | 57:01.04 | 6:22.13 | 256579 | 285241 13 | 63:23.17 | 6:06.03 | 285242 | 312694 14 | 69:29.20 | 5:20.01 | 312695 | 336695
Range status and errors
Selected range
Filename C:\FLAC\Various Artists - Lords Of This World - A Tribute To Black Sabbath.wav
Peak level 99.6 % Range quality 100.0 % Test CRC 49156F6D Copy CRC 49156F6D Copy OK
No errors occurred
AccurateRip summary
Track 1 cannot be verified as accurate (confidence 1) [B1288AB5], AccurateRip returned [0EE2BD06]Track 2 cannot be verified as accurate (confidence 1) [5B79B11B], AccurateRip returned [AE6612A4]Track 3 cannot be verified as accurate (confidence 1) [AF74A9E9], AccurateRip returned [441F96FD]Track 4 cannot be verified as accurate (confidence 1) [6FD15040], AccurateRip returned [193C520C]Track 5 cannot be verified as accurate (confidence 1) [5A3DE0B7], AccurateRip returned [3A72F096]Track 6 cannot be verified as accurate (confidence 1) [3EE98EEF], AccurateRip returned [DD5D6D87]Track 7 cannot be verified as accurate (confidence 1) [7F0E66E1], AccurateRip returned [333CECC8]Track 8 cannot be verified as accurate (confidence 1) [6660B0D8], AccurateRip returned [CDAC6726]Track 9 cannot be verified as accurate (confidence 1) [7D5B8F4F], AccurateRip returned [80F7C5F1]Track 10 cannot be verified as accurate (confidence 1) [4E03927E], AccurateRip returned [EDFCFD6B]Track 11 cannot be verified as accurate (confidence 1) [33BDB99C], AccurateRip returned [0806D1AF]Track 12 cannot be verified as accurate (confidence 1) [5F701CD8], AccurateRip returned [68139C04]Track 13 cannot be verified as accurate (confidence 1) [FAB9F111], AccurateRip returned [CE5B5E24]Track 14 cannot be verified as accurate (confidence 1) [ED9656FA], AccurateRip returned [13B620A1]
No tracks could be verified as accurateYou may have a different pressing from the one(s) in the database
End of status report

Скриншот спектра частот



[torrentc.info]_t_5499325.torrent
Торрент: Зарегистрирован ·  [ 2018-01-04 22:54 ] ·  78347e7e2b22e63616f4c2a3a0c442fa1ae97dba

19 KB

Статус: проверено
Скачан: 0 раз
Размер: 450 MB
Оценка: 
(Голосов: 0)
Сказали спасибо: 0  Спасибо
Похожие темы
[Профиль]    [ЛС]
Показать сообщения:    
Ответить на тему

Текущее время: Сегодня 00:14

Часовой пояс: GMT + 7



Вы не можете начинать темы
Вы не можете отвечать на сообщения
Вы не можете редактировать свои сообщения
Вы не можете удалять свои сообщения
Вы не можете голосовать в опросах
Вы не можете прикреплять файлы к сообщениям
Вы можете скачивать файлы