Мнимый больной (Леонид Нечаев) [1979, комедия, экранизация, DVB-AVC]

Ответить на тему
Статистика раздачи [Обновить пиров]
Размер:  1.69 GB   |    Зарегистрирован:  8 месяцев 19 дней   |    Скачан:  0 раз

Полного источника не было: Никогда

 
   
 
 
 
Автор Сообщение

torrentc.info

Создавать темы 01-Янв-2018 21:42

[Цитировать]

Мнимый больной
Жанр: комедия, экранизация
Год выхода: 1979
Продолжительность: 02:00:52 (01:05:36 + 00:55:16)
Режиссёр: Леонид Нечаев
В ролях: Олег Ефремов, Наталья Гундарева, Анатолий Ромашин, Галина Беляева, Вадим Гущин, Татьяна Васильева, Аня Сотскова, Ролан Быков, Станислав Садальский, Александр Ширвиндт, Валентина Игнатьева, Мария Барабанова, Александр Назаров, Александр Карпов, Владимир Фирсов, Анатолий Елизаров
Описание: По одноименной пьесе Ж-Б. Мольера.
Мнительный человек - беда для окружающих. Если он болен, то смертельно. Если на него косо посмотрели, значит сглазили. Если жена весела, значит - влюбилась в соседа. И вот один такой господин, глава большого семейства, решает проверить, как относятся к нему домочадцы. Для этого он притворяется умирающим.-Доп. информация: запись с IPTV в Беларуси. В начале каждой серии - возрастное ограничение (см. последний скриншот).
Производство: ТО "Экран"
Сценарий: Александр Червинский
Оператор: Юрий Схиртладзе
Художник: Игорь Лемешев
Композитор: Алексей Рыбников
Семпл: http://sendfile.su/1387069
Качество видео: DVB
Формат файла: MKV
Видео: AVC (H264), 720x576@785x576 (4:3), анаморф, 25 fps, 1589-1929 kbps
Аудио: MP2, 192 kbps, 2 channels, 48 kHz

Источник: Torrentc

http://Torrentc/forum/viewtopic.php?t=206484
Кроме того, в сравниваемой раздаче замечены посторонние надписи:

MediaInfoСерия 1

GeneralUnique ID : 133545587102471655506169399167493098276 (0x6477F1CBADC8375B6E1EAD3511B44B24)Complete name : D:\Work\Video\Мнимый больной\Мнимый больной. Серия 1.mkvFormat : MatroskaFormat version : Version 2File size : 1 016 MiBDuration : 1 h 5 minOverall bit rate : 2 164 kb/sWriting application : Lavf54.63.104Writing library : Lavf54.63.104
VideoID : 1Format : AVCFormat/Info : Advanced Video CodecFormat profile : High@L3Format settings, CABAC : YesFormat settings, ReFrames : 4 framesCodec ID : V_MPEG4/ISO/AVCDuration : 1 h 5 minBit rate : 1 929 kb/sWidth : 720 pixelsHeight : 576 pixelsDisplay aspect ratio : 4:3Original display aspect ratio : 4:3Frame rate mode : ConstantFrame rate : 25.000 FPSStandard : ComponentColor space : YUVChroma subsampling : 4:2:0Bit depth : 8 bitsScan type : InterlacedScan type, store method : Separated fieldsScan order : Top Field FirstBits/(Pixel*Frame) : 0.186Stream size : 905 MiB (89%)Default : NoForced : NoColor range : LimitedColor primaries : BT.601 PALTransfer characteristics : BT.470 System B, BT.470 System GMatrix coefficients : BT.601
AudioID : 2Format : MPEG AudioFormat version : Version 1Format profile : Layer 2Codec ID : A_MPEG/L2Codec ID/Hint : MP2Duration : 1 h 5 minBit rate mode : ConstantBit rate : 192 kb/sChannel(s) : 2 channelsSampling rate : 48.0 kHzCompression mode : LossyStream size : 90.1 MiB (9%)Language : RussianDefault : YesForced : No

Серия 2

GeneralUnique ID : 235599601819280669046520056679712590245 (0xB13ED53292E9FF49933788F2E56E89A5)Complete name : D:\Work\Video\Мнимый больной\Мнимый больной. Серия 2.mkvFormat : MatroskaFormat version : Version 2File size : 719 MiBDuration : 55 min 16 sOverall bit rate : 1 817 kb/sWriting application : Lavf54.63.104Writing library : Lavf54.63.104
VideoID : 1Format : AVCFormat/Info : Advanced Video CodecFormat profile : High@L3Format settings, CABAC : YesFormat settings, ReFrames : 4 framesCodec ID : V_MPEG4/ISO/AVCDuration : 55 min 16 sBit rate : 1 589 kb/sWidth : 720 pixelsHeight : 576 pixelsDisplay aspect ratio : 4:3Original display aspect ratio : 4:3Frame rate mode : ConstantFrame rate : 25.000 FPSStandard : ComponentColor space : YUVChroma subsampling : 4:2:0Bit depth : 8 bitsScan type : InterlacedScan type, store method : Separated fieldsScan order : Top Field FirstBits/(Pixel*Frame) : 0.153Stream size : 628 MiB (87%)Default : NoForced : NoColor range : LimitedColor primaries : BT.601 PALTransfer characteristics : BT.470 System B, BT.470 System GMatrix coefficients : BT.601
AudioID : 2Format : MPEG AudioFormat version : Version 1Format profile : Layer 2Codec ID : A_MPEG/L2Codec ID/Hint : MP2Duration : 55 min 16 sBit rate mode : ConstantBit rate : 192 kb/sChannel(s) : 2 channelsSampling rate : 48.0 kHzCompression mode : LossyStream size : 75.9 MiB (11%)Language : RussianDefault : YesForced : No


[torrentc.info]_t_5498289.torrent
Торрент: Зарегистрирован ·  [ 2018-01-01 21:42 ] ·  fc8476149f0a6a97413a12d83f3fa27350cb2c1a

18 KB

Статус: проверено
Скачан: 0 раз
Размер: 1.69 GB
Оценка: 
(Голосов: 0)
Сказали спасибо: 0  Спасибо
Похожие темы
[Профиль]    [ЛС]
Показать сообщения:    
Ответить на тему

Текущее время: Сегодня 07:15

Часовой пояс: GMT + 7



Вы не можете начинать темы
Вы не можете отвечать на сообщения
Вы не можете редактировать свои сообщения
Вы не можете удалять свои сообщения
Вы не можете голосовать в опросах
Вы не можете прикреплять файлы к сообщениям
Вы можете скачивать файлы