Папа, мама, я и Сталин (Марк Розовский) [2017, драма, DVB, AVC] Театр у Никитских ворот

Ответить на тему
Статистика раздачи [Обновить пиров]
Размер:  1.46 GB   |    Зарегистрирован:  8 месяцев 17 дней   |    Скачан:  0 раз

Полного источника не было: Никогда

 
   
 
 
 
Автор Сообщение

torrentc.info

Создавать темы 01-Янв-2018 21:42

[Цитировать]

Папа, мама, я и Сталин
Название театра: Театр у Никитских ворот
Жанр: драма
Год выхода: 2017
Продолжительность: 01:15:36 + 01:18:53
Режиссёр: Марк Розовский
В ролях: Валерий Шейман, Наталья Баронина, Михаил Озорнин, Валерий Толков, Владимир Давиденко, Денис Юченков, Николай Глебов, Денис Сарайкин, Николай Захаров, Константин Иванов, Юрий Голубцов, Андрей Молотков, Николай Захаров, Константин Иванов, Владимир Давиденко, Денис Юченков, Николай Глебов, Денис Сарайкин, Юрий Голубцов, Андрей Молотков
Описание: На сцене театра «У Никитских ворот» Марк Розовский создал автобиографическое произведение на сугубо документальной основе. Частная история любви и история разрыва. Человеческие судьбы, погруженные в эпицентр катаклизмов эпохи.
Доп. информация:
Запись потока *.ts со спутника Intelsat-15 / Horizons 2, 85.2° в.д., ремукс в *.mkv программой VideoReDo.
Семпл: http://multi-up.com/1181074
Качество видео: DVB
Формат файла: MKV
Видео: Advanced Video Codec, 720(1040)x576 (16:9), 25,000 кадров/сек, 1 220 Кбит/сек
Аудио: MPEG Audio, 48,0 КГц, 160 Кбит/сек, 2 канала

MediaInfo

General
Unique ID : 112094758743040279786987696773340545195 (0x5454AA4DA41BE9C55D3405650A2B40AB)
Complete name : D:\Torrent\ПАПА МАМА Я И СТАЛИН\ПАПА МАМА Я И СТАЛИН 1 (Театр).mkv
Format : Matroska
Format version : Version 2
File size : 762 MiB
Duration : 1 h 15 min
Overall bit rate : 1 408 kb/s
Writing application : Lavf52.64.2
Writing library : Lavf52.64.2
Video
ID : 1
Format : AVC
Format/Info : Advanced Video Codec
Format profile : Main@L3
Format settings : CABAC / 3 Ref Frames
Format settings, CABAC : Yes
Format settings, RefFrames : 3 frames
Format settings, GOP : M=4, N=28
Codec ID : V_MPEG4/ISO/AVC
Duration : 1 h 15 min
Bit rate : 1 220 kb/s
Width : 720 pixels
Height : 576 pixels
Display aspect ratio : 16:9
Original display aspect rat : 16:9
Frame rate mode : Constant
Frame rate : 25.000 FPS
Standard : Component
Color space : YUV
Chroma subsampling : 4:2:0
Bit depth : 8 bits
Scan type : Interlaced
Scan type, store method : Separated fields
Scan order : Top Field First
Bits/(Pixel*Frame) : 0.118
Stream size : 660 MiB (87%)
Default : Yes
Forced : No
Color range : Limited
Color primaries : BT.601 PAL
Transfer characteristics : BT.470 System B, BT.470 System G
Matrix coefficients : BT.470 System B, BT.470 System G
Audio
ID : 2
Format : MPEG Audio
Format version : Version 1
Format profile : Layer 2
Codec ID : A_MPEG/L2
Codec ID/Hint : MP2
Duration : 1 h 15 min
Bit rate mode : Constant
Bit rate : 160 kb/s
Channel(s) : 2 channels
Sampling rate : 48.0 kHz
Compression mode : Lossy
Stream size : 86.5 MiB (11%)
Language : Russian
Default : Yes
Forced : No
General
Unique ID : 131072905054300038561905635850691315497 (0x629BB9287F50BE3887B5E680C2348729)
Complete name : D:\Torrent\ПАПА МАМА Я И СТАЛИН\ПАПА МАМА Я И СТАЛИН 2 (Театр).mkv
Format : Matroska
Format version : Version 2
File size : 730 MiB
Duration : 1 h 18 min
Overall bit rate : 1 294 kb/s
Writing application : Lavf52.64.2
Writing library : Lavf52.64.2
Video
ID : 1
Format : AVC
Format/Info : Advanced Video Codec
Format profile : Main@L3
Format settings : CABAC / 3 Ref Frames
Format settings, CABAC : Yes
Format settings, RefFrames : 3 frames
Format settings, GOP : M=4, N=28
Codec ID : V_MPEG4/ISO/AVC
Duration : 1 h 18 min
Bit rate : 1 108 kb/s
Width : 720 pixels
Height : 576 pixels
Display aspect ratio : 16:9
Original display aspect rat : 16:9
Frame rate mode : Constant
Frame rate : 25.000 FPS
Standard : Component
Color space : YUV
Chroma subsampling : 4:2:0
Bit depth : 8 bits
Scan type : Interlaced
Scan type, store method : Separated fields
Scan order : Top Field First
Bits/(Pixel*Frame) : 0.107
Stream size : 625 MiB (86%)
Default : Yes
Forced : No
Color range : Limited
Color primaries : BT.601 PAL
Transfer characteristics : BT.470 System B, BT.470 System G
Matrix coefficients : BT.470 System B, BT.470 System G
Audio
ID : 2
Format : MPEG Audio
Format version : Version 1
Format profile : Layer 2
Codec ID : A_MPEG/L2
Codec ID/Hint : MP2
Duration : 1 h 18 min
Bit rate mode : Constant
Bit rate : 160 kb/s
Channel(s) : 2 channels
Sampling rate : 48.0 kHz
Compression mode : Lossy
Stream size : 90.3 MiB (12%)
Language : Russian
Default : Yes
Forced : No

Скриншот с названием постановки



[torrentc.info]_t_5498344.torrent
Торрент: Зарегистрирован ·  [ 2018-01-01 21:42 ] ·  21fa6780e44f7d27dd8f78afec09dab485a86da1

15 KB

Статус: проверено
Скачан: 0 раз
Размер: 1.46 GB
Оценка: 
(Голосов: 0)
Сказали спасибо: 0  Спасибо
Похожие темы
[Профиль]    [ЛС]
Показать сообщения:    
Ответить на тему

Текущее время: Сегодня 08:21

Часовой пояс: GMT + 7



Вы не можете начинать темы
Вы не можете отвечать на сообщения
Вы не можете редактировать свои сообщения
Вы не можете удалять свои сообщения
Вы не можете голосовать в опросах
Вы не можете прикреплять файлы к сообщениям
Вы можете скачивать файлы