(Big Band, Swing) [CD] Eyal Vilner Big Band - Discography - 2CD, 1EP (2012, 2015, 2016), FLAC (tracks+.cue), lossless

Ответить на тему
Статистика раздачи [Обновить пиров]
Размер:  851 MB   |    Зарегистрирован:  11 месяцев 19 дней   |    Скачан:  0 раз
Сидеров:  4  [  0 KB/s  ]   Личеров:  1  [  0 KB/s  ]   Подробная статистика скачивающих
 
   
 
 
 
Автор Сообщение

torrentc.info

Создавать темы 28-Дек-2017 19:19

[Цитировать]

- --Eyal Vilner Big Band - Discography - 2CD, 1EP (2012, 2015, 2016)- Похоже, Израиль становится инкубатором для современного джаза. Новая волна музыкантов мирового класса во главе с тремя Коенами, пересекла океан, чтобы закрепить израильский флаг в центре Нью Йорка, когда-то неприступной американской крепости джаза. Среди недавних и впечатляющих прибывших - Эяль Вильнер, композитор, аранжировщик и саксофонист из Тель-Авива, который приехал сюда в 2007 году и сформировал свой биг-бэнд год спустя, когда он был студентом Новой школы джаза и современной музыки в Нью-Йорке.Страна исполнителя: Israel > USA
Жанр: Big Band, Swing || Аудио кодек: FLAC || Тип рипа: (tracks + .cue) || Битрейт аудио: lossless || Включает: Full artwork || Общая длительность: 2:16:13 || Источник : Моя коллекция, мои рипы

Introducing the Eyal Vilner Big Band - 2012 (54:25)

Год издания: 2012
Страна - производитель диска: US
Издатель (лейбл): Gut String Records
Номер по каталогу: GSR 007
Тип: CD, Album
Трэклист:
1. Woody'N You (D. Gillespie) 4:07
2. Your Eyes (E. Vilner) 4:20
3. Tonk (R. Bryant) 7:45
4. Isn't This a Lovely Day (I. Berlin) 6:44
5. Un Poco Loco (B. Powel) 5:39
6. The Nearness of You (Carmichael, Washington) 6:22
7. New One (E. Vilner) 4:30
8. Night Flight (E. Vilner) 4:16
9. Remember (I. Berlin) 5:44
10. Epilogue (E. Vilner) 4:54

Лог создания рипа

Exact Audio Copy V1.3 from 2. September 2016
EAC extraction logfile from 18. December 2017, 14:43
Eyal Vilner Big Band / Introducing the Eyal Vilner Big Band
Used drive : HL-DT-STDVDRAM GSA-T50N Adapter: 1 ID: 0
Read mode : SecureUtilize accurate stream : YesDefeat audio cache : YesMake use of C2 pointers : No
Read offset correction : 667Overread into Lead-In and Lead-Out : NoFill up missing offset samples with silence : YesDelete leading and trailing silent blocks : NoNull samples used in CRC calculations : YesUsed interface : Native Win32 interface for Win NT & 2000Gap handling : Appended to previous track
Used output format : User Defined EncoderSelected bitrate : 1024 kBit/sQuality : HighAdd ID3 tag : NoCommand line compressor : C:\Program Files\Exact Audio Copy\Flac\flac.exeAdditional command line options : -V -8 -T "Genre=%genre%" -T "Artist=%artist%" -T "Title=%title%" -T "Album=%albumtitle%" -T "Date=%year%" -T "Tracknumber=%tracknr%" %source% -o %dest%
TOC of the extracted CD
Track | Start | Length | Start sector | End sector --------------------------------------------------------- 1 | 0:00.00 | 4:07.00 | 0 | 18524 2 | 4:07.00 | 4:20.73 | 18525 | 38097 3 | 8:27.73 | 7:45.07 | 38098 | 72979 4 | 16:13.05 | 6:44.70 | 72980 | 103349 5 | 22:58.00 | 5:39.48 | 103350 | 128822 6 | 28:37.48 | 6:22.04 | 128823 | 157476 7 | 34:59.52 | 4:30.60 | 157477 | 177786 8 | 39:30.37 | 4:16.15 | 177787 | 197001 9 | 43:46.52 | 5:44.56 | 197002 | 222857 10 | 49:31.33 | 4:54.23 | 222858 | 244930
Track 1
Filename C:\MG rips\Eyal Vilner Big Band - Introducing the Eyal Vilner Big Band - 2012 (Gut String Records) [FLAC]\01 - Woody 'N You.wav
Pre-gap length 0:00:02.00
Peak level 99.1 % Extraction speed 2.0 X Track quality 99.9 % Test CRC A3FBF88C Copy CRC A3FBF88C Accurately ripped (confidence 3) [5B159D14] (AR v2) Copy OK
Track 2
Filename C:\MG rips\Eyal Vilner Big Band - Introducing the Eyal Vilner Big Band - 2012 (Gut String Records) [FLAC]\02 - Your Eyes.wav
Peak level 97.1 % Extraction speed 2.6 X Track quality 100.0 % Test CRC 5A9BF557 Copy CRC 5A9BF557 Accurately ripped (confidence 3) [A65A7D39] (AR v2) Copy OK
Track 3
Filename C:\MG rips\Eyal Vilner Big Band - Introducing the Eyal Vilner Big Band - 2012 (Gut String Records) [FLAC]\03 - Tonk.wav
Peak level 97.7 % Extraction speed 3.1 X Track quality 100.0 % Test CRC A99868A6 Copy CRC A99868A6 Accurately ripped (confidence 3) [A93B2172] (AR v2) Copy OK
Track 4
Filename C:\MG rips\Eyal Vilner Big Band - Introducing the Eyal Vilner Big Band - 2012 (Gut String Records) [FLAC]\04 - Isn't This a Lovely Day.wav
Peak level 95.6 % Extraction speed 3.4 X Track quality 100.0 % Test CRC 54C8E593 Copy CRC 54C8E593 Accurately ripped (confidence 3) [040B6130] (AR v2) Copy OK
Track 5
Filename C:\MG rips\Eyal Vilner Big Band - Introducing the Eyal Vilner Big Band - 2012 (Gut String Records) [FLAC]\05 - Un Poco Loco.wav
Peak level 98.9 % Extraction speed 3.3 X Track quality 99.9 % Test CRC 25D5406B Copy CRC 25D5406B Accurately ripped (confidence 3) [66DC9BEA] (AR v2) Copy OK
Track 6
Filename C:\MG rips\Eyal Vilner Big Band - Introducing the Eyal Vilner Big Band - 2012 (Gut String Records) [FLAC]\06 - The Nearness of You.wav
Peak level 96.9 % Extraction speed 3.9 X Track quality 100.0 % Test CRC EF7DC276 Copy CRC EF7DC276 Accurately ripped (confidence 3) [598AD5DA] (AR v2) Copy OK
Track 7
Filename C:\MG rips\Eyal Vilner Big Band - Introducing the Eyal Vilner Big Band - 2012 (Gut String Records) [FLAC]\07 - New One.wav
Peak level 98.4 % Extraction speed 4.0 X Track quality 100.0 % Test CRC 2E353340 Copy CRC 2E353340 Accurately ripped (confidence 3) [C0689DDF] (AR v2) Copy OK
Track 8
Filename C:\MG rips\Eyal Vilner Big Band - Introducing the Eyal Vilner Big Band - 2012 (Gut String Records) [FLAC]\08 - Night Flight.wav
Peak level 96.6 % Extraction speed 4.1 X Track quality 100.0 % Test CRC 2A8DDD5B Copy CRC 2A8DDD5B Accurately ripped (confidence 3) [5E56E0ED] (AR v2) Copy OK
Track 9
Filename C:\MG rips\Eyal Vilner Big Band - Introducing the Eyal Vilner Big Band - 2012 (Gut String Records) [FLAC]\09 - Remember.wav
Peak level 98.5 % Extraction speed 4.5 X Track quality 100.0 % Test CRC 9F4F40FB Copy CRC 9F4F40FB Accurately ripped (confidence 3) [53D6F563] (AR v2) Copy OK
Track 10
Filename C:\MG rips\Eyal Vilner Big Band - Introducing the Eyal Vilner Big Band - 2012 (Gut String Records) [FLAC]\10 - Epilogue.wav
Peak level 96.5 % Extraction speed 4.5 X Track quality 100.0 % Test CRC CF7ACE0C Copy CRC CF7ACE0C Accurately ripped (confidence 3) [EC9CC0AB] (AR v2) Copy OK
All tracks accurately ripped
No errors occurred
End of status report
==== Log checksum 0117CDF5F8A88129A1999E6E511AA01AAF021331D7E12C8D7280D155C5CAF30F ====

Содержание индексной карты (.CUE):

REM GENRE "Swing Big Band"REM DATE 2012REM DISCID 8B0CC10AREM COMMENT "ExactAudioCopy v1.3"PERFORMER "Eyal Vilner Big Band"TITLE "Introducing the Eyal Vilner Big Band"REM COMPOSER ""FILE "01 - Woody 'N You.wav" WAVE TRACK 01 AUDIO TITLE "Woody 'N You" PERFORMER "Eyal Vilner Big Band" REM COMPOSER "" ISRC QMT7M1100001 INDEX 01 00:00:00FILE "02 - Your Eyes.wav" WAVE TRACK 02 AUDIO TITLE "Your Eyes" PERFORMER "Eyal Vilner Big Band" REM COMPOSER "" ISRC QMT7M1100002 INDEX 01 00:00:00FILE "03 - Tonk.wav" WAVE TRACK 03 AUDIO TITLE "Tonk" PERFORMER "Eyal Vilner Big Band" REM COMPOSER "" ISRC QMT7M1100003 INDEX 01 00:00:00FILE "04 - Isn't This a Lovely Day.wav" WAVE TRACK 04 AUDIO TITLE "Isn't This a Lovely Day" PERFORMER "Eyal Vilner Big Band" REM COMPOSER "" ISRC QMT7M1100004 INDEX 01 00:00:00FILE "05 - Un Poco Loco.wav" WAVE TRACK 05 AUDIO TITLE "Un Poco Loco" PERFORMER "Eyal Vilner Big Band" REM COMPOSER "" ISRC QMT7M1100005 INDEX 01 00:00:00FILE "06 - The Nearness of You.wav" WAVE TRACK 06 AUDIO TITLE "The Nearness of You" PERFORMER "Eyal Vilner Big Band" REM COMPOSER "" ISRC QMT7M1100006 INDEX 01 00:00:00FILE "07 - New One.wav" WAVE TRACK 07 AUDIO TITLE "New One" PERFORMER "Eyal Vilner Big Band" REM COMPOSER "" ISRC QMT7M1100007 INDEX 01 00:00:00FILE "08 - Night Flight.wav" WAVE TRACK 08 AUDIO TITLE "Night Flight" PERFORMER "Eyal Vilner Big Band" REM COMPOSER "" ISRC QMT7M1100008 INDEX 01 00:00:00FILE "09 - Remember.wav" WAVE TRACK 09 AUDIO TITLE "Remember" PERFORMER "Eyal Vilner Big Band" REM COMPOSER "" ISRC QMT7M1100009 INDEX 01 00:00:00FILE "10 - Epilogue.wav" WAVE TRACK 10 AUDIO TITLE "Epilogue" PERFORMER "Eyal Vilner Big Band" REM COMPOSER "" ISRC QMT7M1100010 INDEX 01 00:00:00

Лог проверки качества

Лог CUETools

[CUETools log; Date: 12/21/2017 5:55:23 AM; Version: 2.1.5][CTDB TOCID: 4JR.7URLXy6PCNm8uR49sV01LFA-] found.Track | CTDB Status 1 | (1/1) Accurately ripped 2 | (1/1) Accurately ripped 3 | (1/1) Accurately ripped 4 | (1/1) Accurately ripped 5 | (1/1) Accurately ripped 6 | (1/1) Accurately ripped 7 | (1/1) Accurately ripped 8 | (1/1) Accurately ripped 9 | (1/1) Accurately ripped 10 | (1/1) Accurately ripped[AccurateRip ID: 0014c7a7-00a722d3-8b0cc10a] found.Track [ CRC | V2 ] Status 01 [475cf95a|5b159d14] (0+3/3) Accurately ripped 02 [7c2cdd5e|a65a7d39] (0+3/3) Accurately ripped 03 [59d9d7d7|a93b2172] (0+3/3) Accurately ripped 04 [8a38e151|040b6130] (0+3/3) Accurately ripped 05 [3a35ecb4|66dc9bea] (0+3/3) Accurately ripped 06 [2faa9c86|598ad5da] (0+3/3) Accurately ripped 07 [2a0cf8bc|c0689ddf] (0+3/3) Accurately ripped 08 [410abfbf|5e56e0ed] (0+3/3) Accurately ripped 09 [cb4f6bd7|53d6f563] (0+3/3) Accurately ripped 10 [aa453893|ec9cc0ab] (0+3/3) Accurately ripped
Track Peak [ CRC32 ] [W/O NULL] [ LOG ] -- 99.1 [3D12D3B0] [176743A9] 01 99.1 [A3FBF88C] [16EB85AD] CRC32 02 97.1 [5A9BF557] [66B7D318] CRC32 03 97.7 [A99868A6] [9C02B0EF] CRC32 04 95.6 [54C8E593] [7FC38AD0] CRC32 05 98.9 [25D5406B] [6C5A6381] CRC32 06 96.9 [EF7DC276] [53426567] CRC32 07 98.4 [2E353340] [B793B00A] CRC32 08 96.6 [2A8DDD5B] [0E5E1D1A] CRC32 09 98.5 [9F4F40FB] [7A4AB6E6] CRC32 10 96.5 [CF7ACE0C] [092EFF8B] CRC32
-

Back

Диск

Матрица

Об альбоме (сборнике):

“This auspicious debut recording by the Eyal Vilner Big Band lives up to the lofty praise heaped upon it, bringing to the public ear for the first time an important new voice preserving and advancing the jazz tradition.” — Russ Musto, All About Jazz New York
"Fourteen of NYC’s finest young musicians performing intriguing new arrangements of jazz standards and originals. A unique blend of traditional jazz music with new concepts, colors, and sounds!” —Scott Barbarino
“…His talents for composing and arranging are outstanding!” — jazz legend, pianist Junior Mance
“His big band is special in that, in addition to five reeds and a rhythm section, it has four, rather than eight, brass. “This combination of instruments gives the band the flexibility of a small group along with the power of a big band.” His 14-piece band is filled with superior soloists who blend together effortlessly to achieve an identifiable group sound. But most impressive is Eyal’s writing, which often voices the horns in inspired ways. He integrates individual lyrical lines for the musicians and harmonizes the horns in unique combinations, mixing together the different sections to create colorful and special sounds that are filled with surprises.
During the past few years, the Eyal Vilner Big Band has been busy performing around the New York City scene, including at Sweet Rhythm, Smalls, Iridium, Fat Cat, and the Garage. After performing a week at Dizzy’s Club Coca Cola, the band was ready to make its recording debut.
The band shows true understanding and respect to the tradition of jazz music while adding an interesting individual twist to it. This impressive debut album by one of New York’s most exiting new groups certainly puts the Eyal Vilner Big Band on the map.” — Scott Yanow, author of ten books including Swing, The Jazz Singers, Jazz On Record 1917-76, and Jazz On Film

Состав

Eyal Vilner - alto sax, clarinet, compositions, arrangements and conducting
Andrew Gould - alto sax, clarinet
Pablo Castano - alto sax, flute
Net Gold - tenor sax
Dan Block - tenor sax, clarinet
Jonah Parzen-Johnson - baritone sax, bass clarinet
Cameron Johnson - trumpet
Brandon Lee - trumpet and flugelhorn
John Mosca - trombone
Kevin Cerovich - trombone
Charenee Wade, Nadia Washington, Charles Turner - vocals
Yonatan Riklis - piano
Alexi David - bass
Yonatan Rosen - drums
Yaala Balin - vocal (4,6,9)
Montana Agte-Studier - flute (4)

Almost Sunrise - 2015 (1:01:40)

Год издания: 2015
Страна - производитель диска: US
Издатель (лейбл): Gut String Records
Номер по каталогу: GSR 019
Тип: CD, Album
Трэклист:
1. The Rabbit (E. Vilner) 3:07
2. Stablemates (B. Golson) 4:43
3. It Don't Mean a Thing (Ellington, Miles) 3:32
4. Lush Life (B.Srtrayhorn) 5:59
5. It Be Feeling Like the Blues (J. Owens) 5:31
6. Straighten Up and Fly Right (Cole, Mils) 4:14
7. The Gypsy (B. Reid) 4:25
8. The District of the Blues (J. Owens) 4:28
9. It's All Right With Me (C. Porter) 4:37
10. Centerpiece (Edison, Hendrix) 3:40
11. Tee Pee Time (C. Terry) 4:38
12. Almost Sunrise (E. Vilner) 6:04
13. Centerpiece (Bonus Track) (Edison, Hendrix) 6:36

Лог создания рипа

Exact Audio Copy V1.3 from 2. September 2016
EAC extraction logfile from 18. December 2017, 14:52
Eyal Vilner Big Band / Almost Sunrise
Used drive : HL-DT-STDVDRAM GH24NSB0 Adapter: 1 ID: 0
Read mode : SecureUtilize accurate stream : YesDefeat audio cache : YesMake use of C2 pointers : No
Read offset correction : 6Overread into Lead-In and Lead-Out : NoFill up missing offset samples with silence : YesDelete leading and trailing silent blocks : NoNull samples used in CRC calculations : YesUsed interface : Native Win32 interface for Win NT & 2000Gap handling : Appended to previous track
Used output format : User Defined EncoderSelected bitrate : 1024 kBit/sQuality : HighAdd ID3 tag : NoCommand line compressor : C:\Program Files (x86)\Exact Audio Copy\FLAC\FLAC.EXEAdditional command line options : -V -8 -T "Genre=%genre%" -T "Artist=%artist%" -T "Title=%title%" -T "Album=%albumtitle%" -T "Date=%year%" -T "Tracknumber=%tracknr%" -T "Comment=%comment%" %source%
TOC of the extracted CD
Track | Start | Length | Start sector | End sector --------------------------------------------------------- 1 | 0:00.00 | 3:07.15 | 0 | 14039 2 | 3:07.15 | 4:43.33 | 14040 | 35297 3 | 7:50.48 | 3:32.01 | 35298 | 51198 4 | 11:22.49 | 5:59.51 | 51199 | 78174 5 | 17:22.25 | 5:31.34 | 78175 | 103033 6 | 22:53.59 | 4:14.34 | 103034 | 122117 7 | 27:08.18 | 4:25.50 | 122118 | 142042 8 | 31:33.68 | 4:28.59 | 142043 | 162201 9 | 36:02.52 | 4:37.60 | 162202 | 183036 10 | 40:40.37 | 3:40.67 | 183037 | 199603 11 | 44:21.29 | 4:38.03 | 199604 | 220456 12 | 48:59.32 | 6:04.02 | 220457 | 247758 13 | 55:03.34 | 6:36.48 | 247759 | 277506
Track 1
Filename D:\Music\MG rips\Eyal Vilner Big Band - Almost Sunrise - 2015 (Gut String Records) [FLAC]\01 - The Rabbit.wav
Pre-gap length 0:00:02.00
Peak level 93.0 % Extraction speed 0.9 X Track quality 99.9 % Test CRC 4CF0FA5A Copy CRC 4CF0FA5A Track not present in AccurateRip database Copy OK
Track 2
Filename D:\Music\MG rips\Eyal Vilner Big Band - Almost Sunrise - 2015 (Gut String Records) [FLAC]\02 - Stablemates.wav
Peak level 92.8 % Extraction speed 1.2 X Track quality 100.0 % Test CRC B5FD090F Copy CRC B5FD090F Track not present in AccurateRip database Copy OK
Track 3
Filename D:\Music\MG rips\Eyal Vilner Big Band - Almost Sunrise - 2015 (Gut String Records) [FLAC]\03 - It Don't Mean a Thing.wav
Peak level 84.9 % Extraction speed 1.3 X Track quality 100.0 % Test CRC 08367F36 Copy CRC 08367F36 Track not present in AccurateRip database Copy OK
Track 4
Filename D:\Music\MG rips\Eyal Vilner Big Band - Almost Sunrise - 2015 (Gut String Records) [FLAC]\04 - Lush Life.wav
Peak level 92.8 % Extraction speed 1.5 X Track quality 100.0 % Test CRC 085B50CC Copy CRC 085B50CC Track not present in AccurateRip database Copy OK
Track 5
Filename D:\Music\MG rips\Eyal Vilner Big Band - Almost Sunrise - 2015 (Gut String Records) [FLAC]\05 - It Be Feeling Like the Blues.wav
Peak level 92.8 % Extraction speed 1.6 X Track quality 100.0 % Test CRC FB0F423D Copy CRC FB0F423D Track not present in AccurateRip database Copy OK
Track 6
Filename D:\Music\MG rips\Eyal Vilner Big Band - Almost Sunrise - 2015 (Gut String Records) [FLAC]\06 - Straighten Up and Fly Right.wav
Peak level 93.4 % Extraction speed 1.7 X Track quality 100.0 % Test CRC F3ADA829 Copy CRC F3ADA829 Track not present in AccurateRip database Copy OK
Track 7
Filename D:\Music\MG rips\Eyal Vilner Big Band - Almost Sunrise - 2015 (Gut String Records) [FLAC]\07 - The Gypsy.wav
Peak level 80.4 % Extraction speed 1.8 X Track quality 100.0 % Test CRC A66211F4 Copy CRC A66211F4 Track not present in AccurateRip database Copy OK
Track 8
Filename D:\Music\MG rips\Eyal Vilner Big Band - Almost Sunrise - 2015 (Gut String Records) [FLAC]\08 - The District of the Blues.wav
Peak level 92.9 % Extraction speed 1.8 X Track quality 100.0 % Test CRC 13AB1D7A Copy CRC 13AB1D7A Track not present in AccurateRip database Copy OK
Track 9
Filename D:\Music\MG rips\Eyal Vilner Big Band - Almost Sunrise - 2015 (Gut String Records) [FLAC]\09 - It's All Right with Me.wav
Peak level 92.8 % Extraction speed 1.9 X Track quality 100.0 % Test CRC DD583C54 Copy CRC DD583C54 Track not present in AccurateRip database Copy OK
Track 10
Filename D:\Music\MG rips\Eyal Vilner Big Band - Almost Sunrise - 2015 (Gut String Records) [FLAC]\10 - Centerpiece.wav
Peak level 92.9 % Extraction speed 2.0 X Track quality 100.0 % Test CRC 8EAFAAE1 Copy CRC 8EAFAAE1 Track not present in AccurateRip database Copy OK
Track 11
Filename D:\Music\MG rips\Eyal Vilner Big Band - Almost Sunrise - 2015 (Gut String Records) [FLAC]\11 - Tee Pee Time.wav
Peak level 93.0 % Extraction speed 2.1 X Track quality 100.0 % Test CRC F8005241 Copy CRC F8005241 Track not present in AccurateRip database Copy OK
Track 12
Filename D:\Music\MG rips\Eyal Vilner Big Band - Almost Sunrise - 2015 (Gut String Records) [FLAC]\12 - Almost Sunrise.wav
Peak level 93.0 % Extraction speed 2.2 X Track quality 100.0 % Test CRC 99ACA1E6 Copy CRC 99ACA1E6 Track not present in AccurateRip database Copy OK
Track 13
Filename D:\Music\MG rips\Eyal Vilner Big Band - Almost Sunrise - 2015 (Gut String Records) [FLAC]\13 - Centerpiece (bonus track).wav
Pre-gap length 0:00:11.36
Peak level 82.5 % Extraction speed 2.4 X Track quality 100.0 % Test CRC 069141E8 Copy CRC 069141E8 Track not present in AccurateRip database Copy OK
None of the tracks are present in the AccurateRip database
No errors occurred
End of status report
==== Log checksum CE4921CA24707431D52BF38F48A6C7A590D505040B94473B3AC54AF6926A7A32 ====

Содержание индексной карты (.CUE):

REM GENRE "Swing Big Band"REM DATE 2015REM DISCID B20E740DREM COMMENT "ExactAudioCopy v1.3"PERFORMER "Eyal Vilner Big Band"TITLE "Almost Sunrise"REM COMPOSER ""FILE "01 - The Rabbit.wav" WAVE TRACK 01 AUDIO TITLE "The Rabbit" PERFORMER "Eyal Vilner Big Band" REM COMPOSER "" ISRC QMT7M1500001 INDEX 01 00:00:00FILE "02 - Stablemates.wav" WAVE TRACK 02 AUDIO TITLE "Stablemates" PERFORMER "Eyal Vilner Big Band" REM COMPOSER "" ISRC QMT7M1500002 INDEX 01 00:00:00FILE "03 - It Don't Mean a Thing.wav" WAVE TRACK 03 AUDIO TITLE "It Don't Mean a Thing" PERFORMER "Eyal Vilner Big Band" REM COMPOSER "" ISRC QMT7M1500003 INDEX 01 00:00:00FILE "04 - Lush Life.wav" WAVE TRACK 04 AUDIO TITLE "Lush Life" PERFORMER "Eyal Vilner Big Band" REM COMPOSER "" ISRC QMT7M1500004 INDEX 01 00:00:00FILE "05 - It Be Feeling Like the Blues.wav" WAVE TRACK 05 AUDIO TITLE "It Be Feeling Like the Blues" PERFORMER "Eyal Vilner Big Band" REM COMPOSER "" ISRC QMT7M1500005 INDEX 01 00:00:00FILE "06 - Straighten Up and Fly Right.wav" WAVE TRACK 06 AUDIO TITLE "Straighten Up and Fly Right" PERFORMER "Eyal Vilner Big Band" REM COMPOSER "" ISRC QMT7M1500006 INDEX 01 00:00:00FILE "07 - The Gypsy.wav" WAVE TRACK 07 AUDIO TITLE "The Gypsy" PERFORMER "Eyal Vilner Big Band" REM COMPOSER "" ISRC QMT7M1500007 INDEX 01 00:00:00FILE "08 - The District of the Blues.wav" WAVE TRACK 08 AUDIO TITLE "The District of the Blues" PERFORMER "Eyal Vilner Big Band" REM COMPOSER "" ISRC QMT7M1500008 INDEX 01 00:00:00FILE "09 - It's All Right with Me.wav" WAVE TRACK 09 AUDIO TITLE "It's All Right with Me" PERFORMER "Eyal Vilner Big Band" REM COMPOSER "" ISRC QMT7M1500009 INDEX 01 00:00:00FILE "10 - Centerpiece.wav" WAVE TRACK 10 AUDIO TITLE "Centerpiece" PERFORMER "Eyal Vilner Big Band" REM COMPOSER "" ISRC QMT7M1500010 INDEX 01 00:00:00FILE "11 - Tee Pee Time.wav" WAVE TRACK 11 AUDIO TITLE "Tee Pee Time" PERFORMER "Eyal Vilner Big Band" REM COMPOSER "" ISRC QMT7M1500011 INDEX 01 00:00:00FILE "12 - Almost Sunrise.wav" WAVE TRACK 12 AUDIO TITLE "Almost Sunrise" PERFORMER "Eyal Vilner Big Band" REM COMPOSER "" ISRC QMT7M1500012 INDEX 01 00:00:00 TRACK 13 AUDIO TITLE "Centerpiece (bonus track)" PERFORMER "Eyal Vilner Big Band" REM COMPOSER "" ISRC QMT7M1500013 INDEX 00 05:52:41FILE "13 - Centerpiece (bonus track).wav" WAVE INDEX 01 00:00:00

Лог проверки качества

Лог CUETools

[CUETools log; Date: 12/21/2017 5:55:13 AM; Version: 2.1.5][CTDB TOCID: C_Mr1chlfZZOiksol9z.Iqg_Cxc-] disk not present in database.[AccurateRip ID: 001c05b9-011b73ad-b20e740d] disk not present in database.
Track Peak [ CRC32 ] [W/O NULL] [ LOG ] -- 93.4 [4099CF81] [9FB47C2F] 01 93.0 [4CF0FA5A] [7219144C] CRC32 02 92.8 [B5FD090F] [9BFDDCF3] CRC32 03 84.9 [08367F36] [C1F02356] CRC32 04 92.8 [085B50CC] [0D335979] CRC32 05 92.8 [FB0F423D] [6778209F] CRC32 06 93.4 [F3ADA829] [9BB772BF] CRC32 07 80.4 [A66211F4] [85512C05] CRC32 08 92.9 [13AB1D7A] [0E4B1AB8] CRC32 09 92.8 [DD583C54] [CE518A77] CRC32 10 92.9 [8EAFAAE1] [E71BAE12] CRC32 11 93.0 [F8005241] [4A626ED7] CRC32 12 93.0 [99ACA1E6] [5B6763C4] CRC32 13 82.5 [069141E8] [FEE8D18C] CRC32
-

Back

Disc

Матрица

Об альбоме (сборнике):

By JACK BOWERS
March 30, 2015
Eyal Vilner Big Band: Almost Sunrise Suddenly, it seems, the state of Israel has become a focal point and incubator for contemporary jazz. A new wave of world-class musicians led by the three Cohens (not to be confused with Broadway's three Cohans) has crossed the ocean to plant the Israeli flag firmly in the midst of what was once considered an unassailable American stronghold. Among the more recent and impressive arrivals is Eyal Vilner, a composer / arranger / saxophonist from Tel Aviv who came here in 2007 and formed his own big band a year later while he was a student at the New School for Jazz and Contemporary Music in NYC.
Vilner's first album, released in 2011 and shrewdly titled Introducing the Eyal Vilner Big Band, received glowing reviews for its ardor and musicianship, and here we have the second, Almost Sunrise, performed by an even larger ensemble, only four of whose members (including Vilner) were present on the band's maiden voyage. That's irrelevant, as the newcomers are seasoned pros who never flinch at the sight of an obdurate chart. Vilner certainly gives them ample reason to flinch, fashioning a series of well-drawn compositions and arrangements that demand their undivided diligence and awareness.
For reasons perhaps known only to himself, Vilner has chosen to implant half a dozen vocal tracks among the album's thirteen selections, three by Charenee Wade, two by Wade, Nadia Washington and Robert Turner and one (Cole Porter's "It's All Right with Me") by Wade and Turner. More about them anon. The band is splendid on its seven numbers, starting with Vilner's irrepressible flag-waver, "The Rabbit," and proceeding through Benny Golson's well-known "Stablemates," Clark Terry's buoyant "Tee Pee Time," Vilner's lustrous "Almost Sunrise" (featuring tenor saxophonist Asaf Yuria), a pair of charmers by Jimmy Owens, "It Be Feeling Like the Blues" and "The District of the Blues" and, as a bonus, a handsome instrumental version of "Centerpiece" (sung earlier by Wade, Washington and Turner) showcasing trombonists John Mosca, Nick Finzer and Max Seigel. Elsewhere, Vilner solos persuasively, as do alto Andrew Gould, tenor Lucas Pino, trumpeters Wayne Tucker and Greg Gisbert, clarinetist Dan Block and bassist Jennifer Vincent.
As to the vocals, Wade sings with clarity and warmth on "Lush Life," "It Don't Mean a Thing" and "The Gypsy," while the trio does no harm on "Straighten Up and Fly Right" and "Centerpiece." If Wade and Turner are somewhat less engaging on "It's All Right with Me," that's a minor quibble when there is so much pleasurable music to be heard elsewhere. Like its widely praised precursor, Almost Sunrise proves another clear-cut winner for Eyal Vilner's impressive big band.

Состав

Eyal Vilner: composer, arranger, conductor, alto sax, flute;
Bryan Davis: trumpet, flugelhorn;
Greg Gisbert: trumpet, flugelhorn;
Matt Jodrell: trumpet, flugelhorn;
Wayne Tucker: trumpet, flugelhorn;
Dan Block: alto, soprano sax, clarinet, flute;
Andrew Gould: alto sax, flute;
Asaf Yuria: tenor sax;
Lucas Pino: tenor sax, clarinet, flute, bass clarinet;
Eden Bareket: baritone sax, clarinet;
John Mosca: trombone;
Nick Finzer: trombone;
Max Seigel: bass trombone;
Tadataka Unno: piano;
Jennifer Vincent: bass;
Joe Strasser: drums;
Charenee Wade: vocals (3, 4, 6, 7, 9, 10);
Nadia Washington: vocals (6, 10);
Charles Turner: vocals (6, 9, 10).

Hanukkah - 2016 (20:08)

Год издания: 2016
Страна - производитель диска: US
Издатель (лейбл): Eyal Vilner Big Band
Номер по каталогу: No number
Тип: EP, Mini Album
Трэклист:
1. Prelude 1:28
2. Maoz Tzur 4:15
3. Sevivon 3:51
4. Oh Hanukkah 3:37
5. Mi Yamelel 6:56

Лог создания рипа

Exact Audio Copy V1.3 from 2. September 2016
EAC extraction logfile from 18. December 2017, 16:19
Eyal Vilner Big Band / Hanukkah
Used drive : HL-DT-STDVDRAM GH24NSB0 Adapter: 1 ID: 0
Read mode : SecureUtilize accurate stream : YesDefeat audio cache : YesMake use of C2 pointers : No
Read offset correction : 6Overread into Lead-In and Lead-Out : NoFill up missing offset samples with silence : YesDelete leading and trailing silent blocks : NoNull samples used in CRC calculations : YesUsed interface : Native Win32 interface for Win NT & 2000Gap handling : Appended to previous track
Used output format : User Defined EncoderSelected bitrate : 1024 kBit/sQuality : HighAdd ID3 tag : NoCommand line compressor : C:\Program Files (x86)\Exact Audio Copy\FLAC\FLAC.EXEAdditional command line options : -V -8 -T "Genre=%genre%" -T "Artist=%artist%" -T "Title=%title%" -T "Album=%albumtitle%" -T "Date=%year%" -T "Tracknumber=%tracknr%" -T "Comment=%comment%" %source%
TOC of the extracted CD
Track | Start | Length | Start sector | End sector --------------------------------------------------------- 1 | 0:00.00 | 1:28.37 | 0 | 6636 2 | 1:28.37 | 4:15.31 | 6637 | 25792 3 | 5:43.68 | 3:51.25 | 25793 | 43142 4 | 9:35.18 | 3:37.02 | 43143 | 59419 5 | 13:12.20 | 6:56.15 | 59420 | 90634
Track 1
Filename D:\Music\MG rips\Eyal Vilner Big Band - Hanukkah - 2016 (Eyal Vilner Big Band) [FLAC]\01 - Prelude.wav
Pre-gap length 0:00:02.00
Peak level 89.1 % Extraction speed 0.8 X Track quality 100.0 % Test CRC 13498E5F Copy CRC 13498E5F Track not present in AccurateRip database Copy OK
Track 2
Filename D:\Music\MG rips\Eyal Vilner Big Band - Hanukkah - 2016 (Eyal Vilner Big Band) [FLAC]\02 - Maoz Tzur.wav
Peak level 91.4 % Extraction speed 1.1 X Track quality 100.0 % Test CRC 0695FA7B Copy CRC 0695FA7B Track not present in AccurateRip database Copy OK
Track 3
Filename D:\Music\MG rips\Eyal Vilner Big Band - Hanukkah - 2016 (Eyal Vilner Big Band) [FLAC]\03 - Sevivon.wav
Peak level 90.4 % Extraction speed 1.2 X Track quality 100.0 % Test CRC 86A07B6B Copy CRC 86A07B6B Track not present in AccurateRip database Copy OK
Track 4
Filename D:\Music\MG rips\Eyal Vilner Big Band - Hanukkah - 2016 (Eyal Vilner Big Band) [FLAC]\04 - Oh Hanukkah!.wav
Peak level 91.2 % Extraction speed 1.3 X Track quality 100.0 % Test CRC 1403B799 Copy CRC 1403B799 Track not present in AccurateRip database Copy OK
Track 5
Filename D:\Music\MG rips\Eyal Vilner Big Band - Hanukkah - 2016 (Eyal Vilner Big Band) [FLAC]\05 - Mi Yemalel.wav
Peak level 92.0 % Extraction speed 1.6 X Track quality 100.0 % Test CRC 6FB69409 Copy CRC 6FB69409 Track not present in AccurateRip database Copy OK
None of the tracks are present in the AccurateRip database
No errors occurred
End of status report
==== Log checksum A355C7E9FDBBB1664D2E345565323BEFF987FF4EFC833841AEABFF8F79C27031 ====

Содержание индексной карты (.CUE):

REM GENRE "Swing Big Band"REM DATE 2016REM DISCID 3E04B805REM COMMENT "ExactAudioCopy v1.3"PERFORMER "Eyal Vilner Big Band"TITLE "Hanukkah"REM COMPOSER ""FILE "01 - Prelude.wav" WAVE TRACK 01 AUDIO TITLE "Prelude" PERFORMER "Eyal Vilner Big Band" REM COMPOSER "" ISRC QMT7M1600001 INDEX 01 00:00:00FILE "02 - Maoz Tzur.wav" WAVE TRACK 02 AUDIO TITLE "Maoz Tzur" PERFORMER "Eyal Vilner Big Band" REM COMPOSER "" ISRC QMT7M1600002 INDEX 01 00:00:00FILE "03 - Sevivon.wav" WAVE TRACK 03 AUDIO TITLE "Sevivon" PERFORMER "Eyal Vilner Big Band" REM COMPOSER "" ISRC QMT7M1600003 INDEX 01 00:00:00FILE "04 - Oh Hanukkah!.wav" WAVE TRACK 04 AUDIO TITLE "Oh Hanukkah!" PERFORMER "Eyal Vilner Big Band" REM COMPOSER "" ISRC QMT7M1600004 INDEX 01 00:00:00FILE "05 - Mi Yemalel.wav" WAVE TRACK 05 AUDIO TITLE "Mi Yemalel" PERFORMER "Eyal Vilner Big Band" REM COMPOSER "" ISRC QMT7M1600005 INDEX 01 00:00:00

Лог проверки качества

Лог CUETools

[CUETools log; Date: 12/21/2017 5:55:16 AM; Version: 2.1.5][CTDB TOCID: h2YKvvXC5Y.GCCo_StNWA7rRGAc-] disk not present in database.[AccurateRip ID: 0003715c-0010d908-3e04b805] disk not present in database.
Track Peak [ CRC32 ] [W/O NULL] [ LOG ] -- 92.0 [C1011EB6] [CC73841D] 01 89.1 [13498E5F] [18EF5689] CRC32 02 91.4 [0695FA7B] [78C173B0] CRC32 03 90.4 [86A07B6B] [FA4414BC] CRC32 04 91.2 [1403B799] [EA07F1E1] CRC32 05 92.0 [6FB69409] [223E41B1] CRC32
-

Back

Disc

Матрица

Об альбоме (сборнике):

Этот альбом нуждается в кратком этно-культурном предисловии. Ханука – один из важных праздников в еврейском религиозном календаре. Связан он с событиями Маккавейской войны во втором веке до нашей эры, когда победоносное восстание в Иудее во главе с братьями Маккавеями против власти эллинистического греко-сирийского царства Селевкидов, обломка империи Александра Македонского, вернуло стране независимость. Когда жрецы приступили к ритуальному очищению Иерусалимского Храма, оскверненного греко-сирийцами, масла для священного огня в ритуальном кувшине оставалось очень мало. Но Бог сделал так, что его хватило на то, чтобы огонь горел целых восемь дней. С тех пор евреи празднуют Хануку, веселый праздник огней, зажигая каждый день по одной свече в специальном светильнике – ханукии (в 2017 году праздник начинается вечером 12 декабря).
Израильский композитор, саксофонист и бэнд-лидер Эяль Вильнер, живущий с 2007 года в Нью-Йорке, основал свой биг-бэнд годом позже и сделал с ним два успешных альбома. В ноябре 2016 года в зале одной из старых нью-йоркских синагог, ныне действующей в качестве музея, он записал этот небольшой EP, состоящий из пяти треков (в сетевом варианте – с бонусной композицией). Разумеется, ошибутся те, кто свяжет Hanukkah с клезмерской традицией – это музыка преимущественно светского характера. Но не правомерно считать эту работу и чисто духовной музыкой. Hanukkah биг-бэнда Эяля Вильнера – типично американский синтез самых разных влияний, синтез еврейской духовной музыки, биг-бэндового свингового джаза, ближневосточной и даже латиноамериканской музыки. Лишь стартовая пьеса Prelude выдержана в стиле строгого религиозного гимна. Но уже в следующей композиции Maoz Tzur Вильнер аранжировал ту же тему в характерной свинговой манере. В Oh Hanukkah! инструментальную музыку дополняет лихая вокальная партия в исполнении женского трио, напоминающего одновременно исполнительниц еврейского фольклора сестер Берри и певиц с более широким джазовым репертуаром сестер Босуэлл. Sevivon довольно органично включает элементы бразильской музыки шоро, а Mi Yemalel неожиданно сочетает свинг и ближневосточную музыку. В общем, все это довольно эклектично, как и тот факт, что наряду с инструментарием биг-бэнда звучит традиционный еврейский ритуальный рог – шофар, однако, удовольствия от прослушивания ханукального альбома по-американски, если вы, конечно, не пурист, не уменьшает.
Леонид Аускерн

Состав

Eyal Vilner - as, cl, shofar, conducting, arrangements (solo: 1);
Tamar Korn, Martina DaSilva, Vanessa Perea – voc (3);
Itai Kriss: - fl (2);
Jay Rattman, Bill Todd - as, cl, fl;
Evan Arntzen – ts, cl (3);
Dan Pearson - ts, cl, fl;
Eden Bareket: - bars, bass cl;
Bryan Davis - lead tp, shofar;
Andy Gravish, Stuart Mack –tp;
Wayne Tucker - tp (solo: 4);
Jim Seeley - tp, shofar;
Matt Musselman, Becca Patterson – tb;
Max Seigel - bass tb;
Jack Glottman – p;
George DeLancey – b;
Erán Fink – dr;


[torrentc.info]_t_5498727.torrent
Торрент: Зарегистрирован ·  [ 2017-12-28 19:18 ] ·  6bb8704ccb4057a1f77bc33dd3850a65d088810a

25 KB

Статус: проверено
Скачан: 0 раз
Размер: 851 MB
Оценка: 
(Голосов: 0)
Сказали спасибо: 0  Спасибо
Похожие темы
[Профиль]    [ЛС]
Показать сообщения:    
Ответить на тему

Текущее время: Сегодня 19:53

Часовой пояс: GMT + 7



Вы не можете начинать темы
Вы не можете отвечать на сообщения
Вы не можете редактировать свои сообщения
Вы не можете удалять свои сообщения
Вы не можете голосовать в опросах
Вы не можете прикреплять файлы к сообщениям
Вы можете скачивать файлы