(Darkwave, Ethereal, Experimental) [CD] Theodor Bastard - Utopia - 2017, FLAC (tracks+.cue), lossless

Ответить на тему
Статистика раздачи [Обновить пиров]
Размер:  238 MB   |    Зарегистрирован:  9 месяцев 27 дней   |    Скачан:  0 раз
Сидеров:  1  [  0 KB/s  ]   Личеров:  1  [  0 KB/s  ]   Подробная статистика скачивающих
 
   
 
 
 
Автор Сообщение

torrentc.info

Создавать темы 21-Дек-2017 23:58

[Цитировать]

Theodor Bastard - Utopia
[img=right]https://image.ibb.co/hk3sS6/Theodor_Bastard_Utopia_Cover.jpg[/img]
Жанр: Darkwave, Ethereal, Experimental
Носитель: CD
Страна-производитель диска (релиза): Russia
Год издания: 2017
Издатель (лейбл): Theo Records
Номер по каталогу: THEO006
Аудиокодек: FLAC (*.flac)
Тип рипа: tracks+.cue
Битрейт аудио: lossless
Продолжительность: 0:38:31
Источник (релизер): Original CD/свой рип
Наличие сканов в содержимом раздачи: да
Треклист:
01. Darkness (3:49)
02. Children Are Burying The Doll (2:07)
03. Drops In The Endless (4:23)
04. Mourning Of The Gone (2:25)
05. Doctor's Dead (2:43)
06. The Temple Of Lost Childhood (1:34)
07. Killing The Bison (3:29)
08. Heart Of The Labyrinth (2:37)
09. Lost In The Night (2:43)
10. Macula Areas (4:00)
11. Disappearing (2:30)
12. Shaman From The Downtown (3:27)
13. Volch'ya Yagoda (2:45)

Отчёт ЕАС

Exact Audio Copy V1.1 from 23. June 2015
EAC extraction logfile from 17. December 2017, 1:32
Theodor Bastard / Utopia
Used drive : ASUS DRW-1612BL Adapter: 2 ID: 0
Read mode : SecureUtilize accurate stream : YesDefeat audio cache : YesMake use of C2 pointers : No
Read offset correction : 6Overread into Lead-In and Lead-Out : NoFill up missing offset samples with silence : YesDelete leading and trailing silent blocks : NoNull samples used in CRC calculations : YesUsed interface : Installed external ASPI interfaceGap handling : Appended to previous track
Used output format : User Defined EncoderSelected bitrate : 128 kBit/sQuality : HighAdd ID3 tag : NoCommand line compressor : C:\Program Files\EAC\Exact Audio Copy\Flac\flac.exeAdditional command line options : -V -8 -T "Genre=%genre%" -T "Artist=%artist%" -T "Title=%title%" -T "Album=%albumtitle%" -T "Date=%year%" -T "Tracknumber=%tracknr%" -T "Comment=%comment%" %source%
TOC of the extracted CD
Track | Start | Length | Start sector | End sector --------------------------------------------------------- 1 | 0:00.00 | 3:48.70 | 0 | 17169 2 | 3:48.70 | 2:07.00 | 17170 | 26694 3 | 5:55.70 | 4:22.59 | 26695 | 46403 4 | 10:18.54 | 2:24.64 | 46404 | 57267 5 | 12:43.43 | 2:42.53 | 57268 | 69470 6 | 15:26.21 | 1:33.64 | 69471 | 76509 7 | 17:00.10 | 3:28.68 | 76510 | 92177 8 | 20:29.03 | 2:36.63 | 92178 | 103940 9 | 23:05.66 | 2:42.58 | 103941 | 116148 10 | 25:48.49 | 4:00.15 | 116149 | 134163 11 | 29:48.64 | 2:30.00 | 134164 | 145413 12 | 32:18.64 | 3:27.30 | 145414 | 160968 13 | 35:46.19 | 2:44.67 | 160969 | 173335
Track 1
Filename C:\darkbrides\01 - Darkness.wav
Pre-gap length 0:00:02.00
Peak level 100.0 % Extraction speed 2.8 X Track quality 100.0 % Test CRC 059F3BA6 Copy CRC 059F3BA6 Track not present in AccurateRip database Copy OK
Track 2
Filename C:\darkbrides\02 - Children Are Burying The Doll.wav
Peak level 98.8 % Extraction speed 2.7 X Track quality 100.0 % Test CRC D0B1E34E Copy CRC D0B1E34E Track not present in AccurateRip database Copy OK
Track 3
Filename C:\darkbrides\03 - Drops In The Endless.wav
Peak level 100.0 % Extraction speed 3.3 X Track quality 100.0 % Test CRC 56203089 Copy CRC 56203089 Track not present in AccurateRip database Copy OK
Track 4
Filename C:\darkbrides\04 - Mourning Of The Gone.wav
Peak level 99.3 % Extraction speed 3.2 X Track quality 100.0 % Test CRC 0956A7E2 Copy CRC 0956A7E2 Track not present in AccurateRip database Copy OK
Track 5
Filename C:\darkbrides\05 - Doctor's Dead.wav
Peak level 100.0 % Extraction speed 3.3 X Track quality 100.0 % Test CRC FC98584D Copy CRC FC98584D Track not present in AccurateRip database Copy OK
Track 6
Filename C:\darkbrides\06 - The Temple Of Lost Childhood.wav
Peak level 100.0 % Extraction speed 3.0 X Track quality 100.0 % Test CRC FCD5FCC6 Copy CRC FCD5FCC6 Track not present in AccurateRip database Copy OK
Track 7
Filename C:\darkbrides\07 - Killing The Bison.wav
Peak level 98.1 % Extraction speed 3.7 X Track quality 100.0 % Test CRC B2D1D019 Copy CRC B2D1D019 Track not present in AccurateRip database Copy OK
Track 8
Filename C:\darkbrides\08 - Heart Of The Labyrinth.wav
Peak level 100.0 % Extraction speed 3.7 X Track quality 100.0 % Test CRC 9FB05939 Copy CRC 9FB05939 Track not present in AccurateRip database Copy OK
Track 9
Filename C:\darkbrides\09 - Lost In The Night.wav
Peak level 98.9 % Extraction speed 3.8 X Track quality 100.0 % Test CRC 246B6023 Copy CRC 246B6023 Track not present in AccurateRip database Copy OK
Track 10
Filename C:\darkbrides\10 - Macula Areas.wav
Peak level 91.0 % Extraction speed 4.2 X Track quality 100.0 % Test CRC 8359497E Copy CRC 8359497E Track not present in AccurateRip database Copy OK
Track 11
Filename C:\darkbrides\11 - Disappearing.wav
Peak level 100.0 % Extraction speed 4.0 X Track quality 100.0 % Test CRC 3BF6E10F Copy CRC 3BF6E10F Track not present in AccurateRip database Copy OK
Track 12
Filename C:\darkbrides\12 - Shaman From The Downtown.wav
Peak level 99.5 % Extraction speed 4.3 X Track quality 100.0 % Test CRC 4D2273F3 Copy CRC 4D2273F3 Track not present in AccurateRip database Copy OK
Track 13
Filename C:\darkbrides\13 - Volch'ya Yagoda.wav
Peak level 100.0 % Extraction speed 4.3 X Track quality 100.0 % Test CRC A3D70A7B Copy CRC A3D70A7B Track not present in AccurateRip database Copy OK
None of the tracks are present in the AccurateRip database
No errors occurred
End of status report
---- CUETools DB Plugin V2.1.6
[CTDB TOCID: 5wFu7.z3AzG4zZAShQ1996oaPXE-] foundSubmit result: already submittedTrack | CTDB Status 1 | (1/1) Accurately ripped 2 | (1/1) Accurately ripped 3 | (1/1) Accurately ripped 4 | (1/1) Accurately ripped 5 | (1/1) Accurately ripped 6 | (1/1) Accurately ripped 7 | (1/1) Accurately ripped 8 | (1/1) Accurately ripped 9 | (1/1) Accurately ripped 10 | (1/1) Accurately ripped 11 | (1/1) Accurately ripped 12 | (1/1) Accurately ripped 13 | (1/1) Accurately ripped
==== Log checksum 8689E6040C10AAA9C91248CDD116FC6F17E1C163466922EEFD9A056791A54DA3 ====

Содержание индексной карты (.CUE)

REM GENRE EthnicREM DATE 2017REM DISCID 9B09070DREM COMMENT "ExactAudioCopy v1.1"PERFORMER "Theodor Bastard"TITLE "Utopia"FILE "01 - Darkness.wav" WAVE TRACK 01 AUDIO TITLE "Darkness" PERFORMER "Theodor Bastard" FLAGS DCP INDEX 01 00:00:00FILE "02 - Children Are Burying The Doll.wav" WAVE TRACK 02 AUDIO TITLE "Children Are Burying The Doll" PERFORMER "Theodor Bastard" FLAGS DCP INDEX 01 00:00:00FILE "03 - Drops In The Endless.wav" WAVE TRACK 03 AUDIO TITLE "Drops In The Endless" PERFORMER "Theodor Bastard" FLAGS DCP INDEX 01 00:00:00FILE "04 - Mourning Of The Gone.wav" WAVE TRACK 04 AUDIO TITLE "Mourning Of The Gone" PERFORMER "Theodor Bastard" FLAGS DCP INDEX 01 00:00:00FILE "05 - Doctor's Dead.wav" WAVE TRACK 05 AUDIO TITLE "Doctor's Dead" PERFORMER "Theodor Bastard" FLAGS DCP INDEX 01 00:00:00FILE "06 - The Temple Of Lost Childhood.wav" WAVE TRACK 06 AUDIO TITLE "The Temple Of Lost Childhood" PERFORMER "Theodor Bastard" FLAGS DCP INDEX 01 00:00:00FILE "07 - Killing The Bison.wav" WAVE TRACK 07 AUDIO TITLE "Killing The Bison" PERFORMER "Theodor Bastard" FLAGS DCP INDEX 01 00:00:00FILE "08 - Heart Of The Labyrinth.wav" WAVE TRACK 08 AUDIO TITLE "Heart Of The Labyrinth" PERFORMER "Theodor Bastard" FLAGS DCP INDEX 01 00:00:00FILE "09 - Lost In The Night.wav" WAVE TRACK 09 AUDIO TITLE "Lost In The Night" PERFORMER "Theodor Bastard" FLAGS DCP INDEX 01 00:00:00FILE "10 - Macula Areas.wav" WAVE TRACK 10 AUDIO TITLE "Macula Areas" PERFORMER "Theodor Bastard" FLAGS DCP INDEX 01 00:00:00FILE "11 - Disappearing.wav" WAVE TRACK 11 AUDIO TITLE "Disappearing" PERFORMER "Theodor Bastard" FLAGS DCP INDEX 01 00:00:00FILE "12 - Shaman From The Downtown.wav" WAVE TRACK 12 AUDIO TITLE "Shaman From The Downtown" PERFORMER "Theodor Bastard" FLAGS DCP INDEX 01 00:00:00FILE "13 - Volch'ya Yagoda.wav" WAVE TRACK 13 AUDIO TITLE "Volch'ya Yagoda" PERFORMER "Theodor Bastard" FLAGS DCP INDEX 01 00:00:00
-


[torrentc.info]_t_5494549.torrent
Торрент: Зарегистрирован ·  [ 2017-12-21 23:54 ] ·  0c3b6726a576a3f4af2ad608e89f7ceed0aae141

21 KB

Статус: проверено
Скачан: 0 раз
Размер: 238 MB
Оценка: 
(Голосов: 0)
Сказали спасибо: 0  Спасибо
Похожие темы
[Профиль]    [ЛС]
Показать сообщения:    
Ответить на тему

Текущее время: Сегодня 18:31

Часовой пояс: GMT + 7



Вы не можете начинать темы
Вы не можете отвечать на сообщения
Вы не можете редактировать свои сообщения
Вы не можете удалять свои сообщения
Вы не можете голосовать в опросах
Вы не можете прикреплять файлы к сообщениям
Вы можете скачивать файлы