(Rnb, Pop, Hip Hop, Soul) [CD] Miguel - War & Leisure - 2017, FLAC (tracks+.cue), lossless

Ответить на тему
Статистика раздачи [Обновить пиров]
Размер:  307 MB   |    Зарегистрирован:  9 месяцев 3 дня   |    Скачан:  0 раз
Сидеров:  4  [  0 KB/s  ]   Личеров:  1  [  0 KB/s  ]   Подробная статистика скачивающих
 
   
 
 
 
Автор Сообщение

torrentc.info

Создавать темы 19-Дек-2017 21:54

[Цитировать]

Miguel / War & Leisure
Жанр: Rnb, Pop, Hip Hop, Soul
Носитель: CD
Год издания: 2017
Издатель (лейбл): RCA
Номер по каталогу: 88985-49724-2
Страна исполнителя (группы): USA
Аудиокодек: FLAC (*.flac)
Тип рипа: tracks+.cue
Битрейт аудио: lossless
Продолжительность: 48:02
Источник (релизер): RED (rudeboy)
Наличие сканов в содержимом раздачи: нет
Треклист:
01. Criminal (feat. Rick Ross) (04:34)
02. Pineapple Skies (04:41)
03. Sky Walker (feat. Travis Scott) (04:19)
04. Banana Clip (03:21)
05. Wolf (feat. Quin) (03:29)
06. Harem (03:13)
07. Told You So (03:10)
08. City of Angels (04:18)
09. Caramelo duro (feat. Kali Uchis) (03:33)
10. Come Through and Chill (feat. J. Cole & Salaam Remi) (05:22)
11. Anointed (03:53)
12. Now (04:09)
Просьба не уходить с раздачи.

Лог создания рипа

Exact Audio Copy V1.0 beta 4 from 7. December 2014
EAC extraction logfile from 1. December 2017, 16:14
Miguel / War & Leisure
Used drive : PIONEER DVD-RW DVR-116D Adapter: 1 ID: 0
Read mode : SecureUtilize accurate stream : YesDefeat audio cache : YesMake use of C2 pointers : No
Read offset correction : 96Overread into Lead-In and Lead-Out : NoFill up missing offset samples with silence : YesDelete leading and trailing silent blocks : NoNull samples used in CRC calculations : YesUsed interface : Native Win32 interface for Win NT & 2000Gap handling : Appended to previous track
Used output format : User Defined EncoderSelected bitrate : 1024 kBit/sQuality : HighAdd ID3 tag : NoCommand line compressor : C:\Program Files (x86)\Exact Audio Copy\Flac\flac.exeAdditional command line options : -8 -V -T "ARTIST=%artist%" -T "TITLE=%title%" -T "ALBUM=%albumtitle%" -T "DATE=%year%" -T "TRACKNUMBER=%tracknr%" -T "GENRE=%genre%" -T "PERFORMER=%albuminterpret%" -T "COMPOSER=%composer%" %haslyrics%--tag-from-file=LYRICS="%lyricsfile%"%haslyrics% -T "ALBUMARTIST=%albumartist%" -T "DISCNUMBER=%cdnumber%" -T "TOTALDISCS=%totalcds%" -T "TOTALTRACKS=%numtracks%" -T "COMMENT=%comment%" %source% -o %dest%
TOC of the extracted CD
Track | Start | Length | Start sector | End sector --------------------------------------------------------- 1 | 0:00.00 | 4:34.51 | 0 | 20600 2 | 4:34.51 | 4:41.27 | 20601 | 41702 3 | 9:16.03 | 4:19.25 | 41703 | 61152 4 | 13:35.28 | 3:21.47 | 61153 | 76274 5 | 16:57.00 | 3:29.07 | 76275 | 91956 6 | 20:26.07 | 3:13.37 | 91957 | 106468 7 | 23:39.44 | 3:10.08 | 106469 | 120726 8 | 26:49.52 | 4:18.13 | 120727 | 140089 9 | 31:07.65 | 3:33.54 | 140090 | 156118 10 | 34:41.44 | 5:22.00 | 156119 | 180268 11 | 40:03.44 | 3:53.53 | 180269 | 197796 12 | 43:57.22 | 4:09.48 | 197797 | 216519
Track 1
Filename C:\new flac rips\Miguel - 2017 - War & Leisure (88985-49724-2)\01 Criminal (feat. Rick Ross).wav
Pre-gap length 0:00:02.00
Peak level 99.1 % Extraction speed 4.7 X Track quality 100.0 % Test CRC 0171157B Copy CRC 0171157B Track not present in AccurateRip database Copy OK
Track 2
Filename C:\new flac rips\Miguel - 2017 - War & Leisure (88985-49724-2)\02 Pineapple Skies.wav
Peak level 99.4 % Extraction speed 5.2 X Track quality 100.0 % Test CRC A31A5A9B Copy CRC A31A5A9B Track not present in AccurateRip database Copy OK
Track 3
Filename C:\new flac rips\Miguel - 2017 - War & Leisure (88985-49724-2)\03 Sky Walker (feat. Travis Scott).wav
Peak level 99.0 % Extraction speed 5.5 X Track quality 100.0 % Test CRC 6C3D06B3 Copy CRC 6C3D06B3 Track not present in AccurateRip database Copy OK
Track 4
Filename C:\new flac rips\Miguel - 2017 - War & Leisure (88985-49724-2)\04 Banana Clip.wav
Peak level 91.5 % Extraction speed 5.7 X Track quality 100.0 % Test CRC 886D3F83 Copy CRC 886D3F83 Track not present in AccurateRip database Copy OK
Track 5
Filename C:\new flac rips\Miguel - 2017 - War & Leisure (88985-49724-2)\05 Wolf (feat. Quin).wav
Peak level 99.0 % Extraction speed 5.9 X Track quality 100.0 % Test CRC CE88D9A7 Copy CRC CE88D9A7 Track not present in AccurateRip database Copy OK
Track 6
Filename C:\new flac rips\Miguel - 2017 - War & Leisure (88985-49724-2)\06 Harem.wav
Peak level 99.2 % Extraction speed 6.1 X Track quality 100.0 % Test CRC 92037A95 Copy CRC 92037A95 Track not present in AccurateRip database Copy OK
Track 7
Filename C:\new flac rips\Miguel - 2017 - War & Leisure (88985-49724-2)\07 Told You So.wav
Peak level 94.1 % Extraction speed 6.3 X Track quality 100.0 % Test CRC BB5BC17F Copy CRC BB5BC17F Track not present in AccurateRip database Copy OK
Track 8
Filename C:\new flac rips\Miguel - 2017 - War & Leisure (88985-49724-2)\08 City of Angels.wav
Peak level 99.0 % Extraction speed 6.8 X Track quality 100.0 % Test CRC 1FE0CBD2 Copy CRC 1FE0CBD2 Track not present in AccurateRip database Copy OK
Track 9
Filename C:\new flac rips\Miguel - 2017 - War & Leisure (88985-49724-2)\09 Caramelo duro (feat. Kali Uchis).wav
Peak level 99.1 % Extraction speed 6.8 X Track quality 100.0 % Test CRC 451DA38B Copy CRC 451DA38B Track not present in AccurateRip database Copy OK
Track 10
Filename C:\new flac rips\Miguel - 2017 - War & Leisure (88985-49724-2)\10 Come Through and Chill (feat. J. Cole & Salaam Remi).wav
Peak level 99.1 % Extraction speed 6.8 X Track quality 99.9 % Test CRC D48627FA Copy CRC D48627FA Track not present in AccurateRip database Copy OK
Track 11
Filename C:\new flac rips\Miguel - 2017 - War & Leisure (88985-49724-2)\11 Anointed.wav
Peak level 99.4 % Extraction speed 6.6 X Track quality 99.9 % Test CRC D7688A7A Copy CRC D7688A7A Track not present in AccurateRip database Copy OK
Track 12
Filename C:\new flac rips\Miguel - 2017 - War & Leisure (88985-49724-2)\12 Now.wav
Peak level 98.9 % Extraction speed 6.8 X Track quality 99.9 % Test CRC 9AE9B085 Copy CRC 9AE9B085 Track not present in AccurateRip database Copy OK
None of the tracks are present in the AccurateRip database
No errors occurred
End of status report
---- CUETools DB Plugin V2.1.4
[CTDB TOCID: TDxFydXVlJ1e8TPa_89PBCz2k9s-] disk not present in databaseSubmit result: TDxFydXVlJ1e8TPa_89PBCz2k9s- has been uploaded
==== Log checksum 3204721589976377985E6ED44F4D8C3A03EAD0720D5DD9A4AE133CAE1B1D712B ====

Содержание индексной карты (.CUE)

REM GENRE R&BREM DATE 2017REM DISCID A00B460CREM COMMENT "ExactAudioCopy v1.0b4"PERFORMER "Miguel"TITLE "War & Leisure"FILE "01 Criminal (feat. Rick Ross).wav" WAVE TRACK 01 AUDIO TITLE "Criminal (feat. Rick Ross)" PERFORMER "Miguel" INDEX 01 00:00:00FILE "02 Pineapple Skies.wav" WAVE TRACK 02 AUDIO TITLE "Pineapple Skies" PERFORMER "Miguel" INDEX 01 00:00:00FILE "03 Sky Walker (feat. Travis Scott).wav" WAVE TRACK 03 AUDIO TITLE "Sky Walker (feat. Travis Scott)" PERFORMER "Miguel" INDEX 01 00:00:00FILE "04 Banana Clip.wav" WAVE TRACK 04 AUDIO TITLE "Banana Clip" PERFORMER "Miguel" INDEX 01 00:00:00FILE "05 Wolf (feat. Quin).wav" WAVE TRACK 05 AUDIO TITLE "Wolf (feat. Quin)" PERFORMER "Miguel" INDEX 01 00:00:00FILE "06 Harem.wav" WAVE TRACK 06 AUDIO TITLE "Harem" PERFORMER "Miguel" INDEX 01 00:00:00FILE "07 Told You So.wav" WAVE TRACK 07 AUDIO TITLE "Told You So" PERFORMER "Miguel" INDEX 01 00:00:00FILE "08 City of Angels.wav" WAVE TRACK 08 AUDIO TITLE "City of Angels" PERFORMER "Miguel" INDEX 01 00:00:00FILE "09 Caramelo duro (feat. Kali Uchis).wav" WAVE TRACK 09 AUDIO TITLE "Caramelo duro (feat. Kali Uchis)" PERFORMER "Miguel" INDEX 01 00:00:00FILE "10 Come Through and Chill (feat. J. Cole & Salaam Remi).wav" WAVE TRACK 10 AUDIO TITLE "Come Through and Chill (feat. J. Cole & Salaam Remi)" PERFORMER "Miguel" INDEX 01 00:00:00FILE "11 Anointed.wav" WAVE TRACK 11 AUDIO TITLE "Anointed" PERFORMER "Miguel" INDEX 01 00:00:00FILE "12 Now.wav" WAVE TRACK 12 AUDIO TITLE "Now" PERFORMER "Miguel" INDEX 01 00:00:00


[torrentc.info]_t_5488106.torrent
Торрент: Зарегистрирован ·  [ 2017-12-19 21:54 ] ·  9ff2aca0fdde6ec268098882b53bcb88aa7543bd

13 KB

Статус: проверено
Скачан: 0 раз
Размер: 307 MB
Оценка: 
(Голосов: 0)
Сказали спасибо: 0  Спасибо
[Профиль]    [ЛС]
Показать сообщения:    
Ответить на тему

Текущее время: Сегодня 17:54

Часовой пояс: GMT + 7



Вы не можете начинать темы
Вы не можете отвечать на сообщения
Вы не можете редактировать свои сообщения
Вы не можете удалять свои сообщения
Вы не можете голосовать в опросах
Вы не можете прикреплять файлы к сообщениям
Вы можете скачивать файлы