Джентльменъ (Евгений Каменькович) [2016, сатирическая комедия, DVB-AVC] Московский театр Современник

Ответить на тему
Статистика раздачи [Обновить пиров]
Размер:  1.95 GB   |    Зарегистрирован:  6 месяцев   |    Скачан:  1 раз

Полного источника не было: 1 месяц 1 день

 
   
 
 
 
Автор Сообщение

torrentc.info

Создавать темы 17-Дек-2017 22:00

[Цитировать]

Джентльменъ
Название театра: Московский театр Современник
Жанр: сатирическая комедия
Год выхода: 2016
Продолжительность: 01:23:07 + 01:22:59
Режиссёр: Евгений Каменькович
В ролях: С. Коркошко, А. Смольянинов, Д. Белоусова, А. Узденский, М. Разуваев, О. Дроздова, А. Берда, И. Древнов, Н. Попков, В. Романенко, Д. Фролова, Ш. Хаматов, И. Лыков, Д. Смолев
Описание: У острой сатирической комедии князя Сумбатова-Южина сложная сценическая судьба. Написанная в 1897 году пьеса была поставлена в Малом театре с Марией Николаевной Ермоловой в главной роли. После премьеры на автора буквально ополчилось московское купечество, к огромному удивлению для себя поддержанное прессой второго города империи. Основанием для этого агрессивного раздражения послужил не столько спектакль, сколько сама пьеса, едко и крайне нелицеприятно описывающая нравы как московских воротил, кичащихся своим богатством, так и определенной части журналистов. Сатирическая острота и обличительная сила комедии разила без промаха. На премьере 1897 года в зале Малого театра собралась вся купеческая Москва
Доп. информация:
Запись потока *.ts со спутника Intelsat-15 / Horizons 2, 85.2° в.д., ремукс в *.mkv программой VideoReDo.
Семпл: http://multi-up.com/1179530
Качество видео: DVB
Формат файла: MKV
Видео: Advanced Video Codec, 720(1040)x576 (16:9), 25,000 кадров/сек, 1 466 Кбит/сек
Аудио: MPEG Audio, 48,0 КГц, 160 Кбит/сек, 2 канала

MediaInfo

General
Unique ID : 276946468878848297095048763192392472770 (0xD059F3223353BFFF9DF72191DE66D8C2)
Complete name : D:\Torrent\ДЖЕНТЛЬМЕНЪ\ДЖЕНТЛЬМЕНЪ 1 (Театр).mkv
Format : Matroska
Format version : Version 2
File size : 987 MiB
Duration : 1 h 23 min
Overall bit rate : 1 659 kb/s
Writing application : Lavf52.64.2
Writing library : Lavf52.64.2
Video
ID : 1
Format : AVC
Format/Info : Advanced Video Codec
Format profile : Main@L3
Format settings : CABAC / 3 Ref Frames
Format settings, CABAC : Yes
Format settings, RefFrames : 3 frames
Format settings, GOP : M=4, N=28
Codec ID : V_MPEG4/ISO/AVC
Duration : 1 h 23 min
Bit rate : 1 466 kb/s
Width : 720 pixels
Height : 576 pixels
Display aspect ratio : 16:9
Original display aspect rat : 16:9
Frame rate mode : Constant
Frame rate : 25.000 FPS
Standard : Component
Color space : YUV
Chroma subsampling : 4:2:0
Bit depth : 8 bits
Scan type : Interlaced
Scan type, store method : Separated fields
Scan order : Top Field First
Bits/(Pixel*Frame) : 0.141
Stream size : 872 MiB (88%)
Default : Yes
Forced : No
Color range : Limited
Color primaries : BT.601 PAL
Transfer characteristics : BT.470 System B, BT.470 System G
Matrix coefficients : BT.470 System B, BT.470 System G
Audio
ID : 2
Format : MPEG Audio
Format version : Version 1
Format profile : Layer 2
Codec ID : A_MPEG/L2
Codec ID/Hint : MP2
Duration : 1 h 23 min
Bit rate mode : Constant
Bit rate : 160 kb/s
Channel(s) : 2 channels
Sampling rate : 48.0 kHz
Compression mode : Lossy
Stream size : 95.1 MiB (10%)
Language : Russian
Default : Yes
Forced : No
General
Unique ID : 305311838413809424552933638921375093268 (0xE5B0EBD39CE9E299F62C1BF83AAA9214)
Complete name : D:\Torrent\ДЖЕНТЛЬМЕНЪ\ДЖЕНТЛЬМЕНЪ 2 (Театр).mkv
Format : Matroska
Format version : Version 2
File size : 1 010 MiB
Duration : 1 h 23 min
Overall bit rate : 1 702 kb/s
Writing application : Lavf52.64.2
Writing library : Lavf52.64.2
Video
ID : 1
Format : AVC
Format/Info : Advanced Video Codec
Format profile : Main@L3
Format settings : CABAC / 3 Ref Frames
Format settings, CABAC : Yes
Format settings, RefFrames : 3 frames
Codec ID : V_MPEG4/ISO/AVC
Duration : 1 h 23 min
Bit rate : 1 508 kb/s
Width : 720 pixels
Height : 576 pixels
Display aspect ratio : 16:9
Original display aspect rat : 16:9
Frame rate mode : Constant
Frame rate : 25.000 FPS
Standard : Component
Color space : YUV
Chroma subsampling : 4:2:0
Bit depth : 8 bits
Scan type : Interlaced
Scan type, store method : Separated fields
Scan order : Top Field First
Bits/(Pixel*Frame) : 0.145
Stream size : 895 MiB (89%)
Default : Yes
Forced : No
Color range : Limited
Color primaries : BT.601 PAL
Transfer characteristics : BT.470 System B, BT.470 System G
Matrix coefficients : BT.470 System B, BT.470 System G
Audio
ID : 2
Format : MPEG Audio
Format version : Version 1
Format profile : Layer 2
Codec ID : A_MPEG/L2
Codec ID/Hint : MP2
Duration : 1 h 23 min
Bit rate mode : Constant
Bit rate : 160 kb/s
Channel(s) : 2 channels
Sampling rate : 48.0 kHz
Compression mode : Lossy
Stream size : 95.0 MiB (9%)
Language : Russian
Default : Yes
Forced : No

Скриншот с названием постановки

Скриншоты



[torrentc.info]_t_5492229.torrent
Торрент: Зарегистрирован ·  [ 2017-12-17 22:00 ] ·  d39722cb541984e0d63463b4fd514fd33e8edb21

20 KB

Статус: проверено
Скачан: 1 раз
Размер: 1.95 GB
Оценка: 
(Голосов: 0)
Сказали спасибо: 0  Спасибо
Похожие темы
[Профиль]    [ЛС]
Показать сообщения:    
Ответить на тему

Текущее время: Сегодня 10:57

Часовой пояс: GMT + 7



Вы не можете начинать темы
Вы не можете отвечать на сообщения
Вы не можете редактировать свои сообщения
Вы не можете удалять свои сообщения
Вы не можете голосовать в опросах
Вы не можете прикреплять файлы к сообщениям
Вы можете скачивать файлы