(Lounge/Downtempo/Lo-fi/Jazzy/Acid Jazz/House) [CD] VA - Tokyo Fashion District - 2008, FLAC (image+.cue), lossless

Ответить на тему
Статистика раздачи [Обновить пиров]
Размер:  887 MB   |    Зарегистрирован:  6 месяцев 9 дней   |    Скачан:  0 раз

Полного источника не было: Никогда

 
   
 
 
 
Автор Сообщение

torrentc.info

Создавать темы 14-Дек-2017 23:51

[Цитировать]

Various Artists / Tokyo Fashion District Жанр: Lounge/Downtempo/Lo-fi/Jazzy/Acid Jazz/House
Носитель: CD
Страна-производитель диска (релиза): Italy
Год издания: 2008
Издатель (лейбл): Cool D:Vision
Номер по каталогу: CLD CD 058/08
Аудиокодек: FLAC (*.flac)
Тип рипа: image+.cue
Битрейт аудио: lossless
Продолжительность: 02:07:24
Источник (релизер): DavidVI
Наличие сканов в содержимом раздачи: да

СD1 - DayТреклист

01 Goldin - 10.15 (03:21)
02 Fertile Ground - Simple Timeless (04:02)
03 Slowly - Jazz In You (04:50)
04 Minako Okuyama - Reminiscence (04:57)
05 Reel People Feat. Omar - Outta Love (4hero Remix) (04:34)
06 Oh! Penelope - I'm Gonna Miss You (04:46)
07 [re:jazz] - Twiggy Twiggy (03:14)
08 Takesho Nakatsuka Sings With Asako Toki - Your Voice (04:18)
09 Jafrosax Feat. Yukimi Nagano - Drawn 2 U (04:52)
10 Juri Shono - Eki Nite (05:21)
11 [re:jazz] - Quiet Nights (Nicola Conte 'Out Of The Cool' Version) (05:00)
12 Jazztronik Feat. Sonomi Tameoka - Beauty Flow (Main Mix) (04:21)
13 Reggae Disco Rockers - I Saw The Light (Original Version) (04:26)
14 Akiko Wada - Watshi Yumeo Miruno (03:16)

Лог создания рипа

Exact Audio Copy V1.3 from 2. September 2016
EAC extraction logfile from 10. December 2017, 11:26
Various Artists / Tokyo Fashion District
Used drive : MATSHITABD-RE UJ260 Adapter: 1 ID: 0
Read mode : SecureUtilize accurate stream : YesDefeat audio cache : YesMake use of C2 pointers : No
Read offset correction : 103Overread into Lead-In and Lead-Out : NoFill up missing offset samples with silence : YesDelete leading and trailing silent blocks : NoNull samples used in CRC calculations : YesUsed interface : Native Win32 interface for Win NT & 2000
Used output format : User Defined EncoderSelected bitrate : 128 kBit/sQuality : HighAdd ID3 tag : NoCommand line compressor : C:\Program Files (x86)\Exact Audio Copy\Flac\flac.exeAdditional command line options : -V -8 -T "Date=%year%" -T "Genre=%genre%" %source%
TOC of the extracted CD
Track | Start | Length | Start sector | End sector --------------------------------------------------------- 1 | 0:00.00 | 3:21.37 | 0 | 15111 2 | 3:21.37 | 4:02.14 | 15112 | 33275 3 | 7:23.51 | 4:50.67 | 33276 | 55092 4 | 12:14.43 | 4:57.70 | 55093 | 77437 5 | 17:12.38 | 4:34.72 | 77438 | 98059 6 | 21:47.35 | 4:46.00 | 98060 | 119509 7 | 26:33.35 | 3:14.45 | 119510 | 134104 8 | 29:48.05 | 4:18.34 | 134105 | 153488 9 | 34:06.39 | 4:52.54 | 153489 | 175442 10 | 38:59.18 | 5:21.16 | 175443 | 199533 11 | 44:20.34 | 5:00.47 | 199534 | 222080 12 | 49:21.06 | 4:21.14 | 222081 | 241669 13 | 53:42.20 | 4:26.21 | 241670 | 261640 14 | 58:08.41 | 3:16.61 | 261641 | 276401
Range status and errors
Selected range
Filename D:\Music\Tokyo Fashion District\CD1 - Day\Various Artists - Tokyo Fashion District.wav
Peak level 98.9 % Extraction speed 4.3 X Range quality 100.0 % Test CRC 06FDAFDF Copy CRC 06FDAFDF Copy OK
No errors occurred
AccurateRip summary
Track 1 accurately ripped (confidence 2) [33B85BC9] (AR v2)Track 2 accurately ripped (confidence 2) [85A52068] (AR v2)Track 3 accurately ripped (confidence 2) [309DA741] (AR v2)Track 4 accurately ripped (confidence 2) [D999E75A] (AR v2)Track 5 accurately ripped (confidence 2) [0CBE8716] (AR v2)Track 6 accurately ripped (confidence 2) [3958D958] (AR v2)Track 7 accurately ripped (confidence 2) [8D2F3402] (AR v2)Track 8 accurately ripped (confidence 2) [6415D809] (AR v2)Track 9 accurately ripped (confidence 2) [83185C31] (AR v2)Track 10 accurately ripped (confidence 2) [090B83C9] (AR v2)Track 11 accurately ripped (confidence 2) [1A3EEA6D] (AR v2)Track 12 accurately ripped (confidence 2) [6E3A994C] (AR v2)Track 13 accurately ripped (confidence 2) [0B00D3BB] (AR v2)Track 14 accurately ripped (confidence 2) [64A5407A] (AR v2)
All tracks accurately ripped
End of status report
==== Log checksum 45708236A4519118FF15BB73B4AE1BB34AE414925591940407B71DBF67C2FCD5 ====

Содержание индексной карты (.CUE)

REM GENRE "Lounge/Downtempo/Lo-fi/Jazzy/Acid Jazz/House"REM DATE 2008REM DISCID B50E650EREM COMMENT "ExactAudioCopy v1.3"PERFORMER "Various Artists"TITLE "Tokyo Fashion District"REM COMPOSER ""FILE "Various Artists - Tokyo Fashion District.flac" WAVE TRACK 01 AUDIO TITLE "10.15" PERFORMER "Goldin" REM COMPOSER "" INDEX 01 00:00:00 TRACK 02 AUDIO TITLE "Simple Timeless" PERFORMER "Fertile Ground" REM COMPOSER "" INDEX 01 03:21:37 TRACK 03 AUDIO TITLE "Jazz In You" PERFORMER "Slowly" REM COMPOSER "" INDEX 01 07:23:51 TRACK 04 AUDIO TITLE "Reminiscence" PERFORMER "Minako Okuyama" REM COMPOSER "" INDEX 01 12:14:43 TRACK 05 AUDIO TITLE "Outta Love (4hero Remix)" PERFORMER "Reel People Feat. Omar" REM COMPOSER "" INDEX 01 17:12:38 TRACK 06 AUDIO TITLE "I'm Gonna Miss You" PERFORMER "Oh! Penelope" REM COMPOSER "" INDEX 01 21:47:35 TRACK 07 AUDIO TITLE "Twiggy Twiggy" PERFORMER "[re:jazz]" REM COMPOSER "" INDEX 01 26:33:35 TRACK 08 AUDIO TITLE "Your Voice" PERFORMER "Takesho Nakatsuka Sings With Asako Toki" REM COMPOSER "" INDEX 01 29:48:05 TRACK 09 AUDIO TITLE "Drawn 2 U" PERFORMER "Jafrosax Feat. Yukimi Nagano" REM COMPOSER "" INDEX 01 34:06:39 TRACK 10 AUDIO TITLE "Eki Nite" PERFORMER "Juri Shono" REM COMPOSER "" INDEX 00 38:59:16 INDEX 01 38:59:18 TRACK 11 AUDIO TITLE "Quiet Nights (Nicola Conte 'Out Of The Cool' Version)" PERFORMER "[re:jazz]" REM COMPOSER "" INDEX 01 44:20:34 TRACK 12 AUDIO TITLE "Beauty Flow (Main Mix)" PERFORMER "Jazztronik Feat. Sonomi Tameoka" REM COMPOSER "" INDEX 01 49:21:06 TRACK 13 AUDIO TITLE "I Saw The Light (Original Version) " PERFORMER "Reggae Disco Rockers" REM COMPOSER "" INDEX 01 53:42:20 TRACK 14 AUDIO TITLE "Watshi Yumeo Miruno" PERFORMER "Akiko Wada" REM COMPOSER "" INDEX 01 58:08:41

СD2 - NightТреклист

01 Slowly Feat. Alison Crockett - Find Illusion (DJ Kawasaki Remix) (04:05)
02 DJ Kawasaki Feat. Tasita D'Mour - You Can Make It (04:18)
03 Wez Clarke & Maxine Hardcastle Feat. The Lovely Sara - Another Chance (04:30)
04 Rochelle Fleming - I'll Stay Right Here (Woody Bianchi Right Mix) (04:49)
05 Jada - Beautiful (Mark Picchiotti Vocal Mix) (04:45)
06 Ananda Project - Stalk You (DJ Kawasaki Remix) (04:59)
07 Dive Index - Between Sky and Sea (Jason Bentley Remix) (04:52)
08 Osunlade - Momma's Groove (Original Mix) (04:35)
09 Charles Laster II - It's About Love (Louis Botella Remix) (04:59)
10 Chris Lake Feat. Nastala - Only One (Original Mix) (04:20)
11 Kaori - In My Head (DJ Kawasaki Remix) (04:41)
12 Benny Benassi Feat. Channing - Come Fly Away (Soha & Adam K Remix) (05:11)
13 Rivaz - Ain't Nobody (Club Mix) (04:52)
14 Consoul Trainin Feat. Joan Kolova - Stop (Diego Donati Remix) (04:57)

Лог создания рипа

Exact Audio Copy V1.3 from 2. September 2016
EAC extraction logfile from 10. December 2017, 12:55
Various Artists / Tokyo Fashion District
Used drive : MATSHITABD-RE UJ260 Adapter: 1 ID: 0
Read mode : SecureUtilize accurate stream : YesDefeat audio cache : YesMake use of C2 pointers : No
Read offset correction : 103Overread into Lead-In and Lead-Out : NoFill up missing offset samples with silence : YesDelete leading and trailing silent blocks : NoNull samples used in CRC calculations : YesUsed interface : Native Win32 interface for Win NT & 2000
Used output format : User Defined EncoderSelected bitrate : 128 kBit/sQuality : HighAdd ID3 tag : NoCommand line compressor : C:\Program Files (x86)\Exact Audio Copy\Flac\flac.exeAdditional command line options : -V -8 -T "Date=%year%" -T "Genre=%genre%" %source%
TOC of the extracted CD
Track | Start | Length | Start sector | End sector --------------------------------------------------------- 1 | 0:00.00 | 4:05.51 | 0 | 18425 2 | 4:05.51 | 4:18.52 | 18426 | 37827 3 | 8:24.28 | 4:30.40 | 37828 | 58117 4 | 12:54.68 | 4:49.24 | 58118 | 79816 5 | 17:44.17 | 4:45.37 | 79817 | 101228 6 | 22:29.54 | 4:59.29 | 101229 | 123682 7 | 27:29.08 | 4:52.22 | 123683 | 145604 8 | 32:21.30 | 4:35.16 | 145605 | 166245 9 | 36:56.46 | 4:59.14 | 166246 | 188684 10 | 41:55.60 | 4:20.57 | 188685 | 208241 11 | 46:16.42 | 4:41.54 | 208242 | 229370 12 | 50:58.21 | 5:11.33 | 229371 | 252728 13 | 56:09.54 | 4:52.18 | 252729 | 274646 14 | 61:01.72 | 4:57.02 | 274647 | 296923
Range status and errors
Selected range
Filename D:\Music\Tokyo Fashion District\CD2 - Night\Various Artists - Tokyo Fashion District.wav
Peak level 100.0 % Extraction speed 1.3 X Range quality 100.0 % Test CRC F37F76B1 Copy CRC F37F76B1 Copy OK
No errors occurred
AccurateRip summary
Track 1 accurately ripped (confidence 1) [8F67335D] (AR v2)Track 2 accurately ripped (confidence 2) [A7BB9729] (AR v1)Track 3 accurately ripped (confidence 2) [6F26924F] (AR v1)Track 4 accurately ripped (confidence 2) [5E6673E7] (AR v1)Track 5 accurately ripped (confidence 2) [BFFED1E3] (AR v1)Track 6 accurately ripped (confidence 2) [0BD43E63] (AR v1)Track 7 accurately ripped (confidence 2) [BF48EF0B] (AR v1)Track 8 accurately ripped (confidence 2) [67A102B4] (AR v1)Track 9 accurately ripped (confidence 2) [8E4196D0] (AR v1)Track 10 accurately ripped (confidence 2) [A9D5F716] (AR v1)Track 11 accurately ripped (confidence 2) [D4469F42] (AR v1)Track 12 accurately ripped (confidence 1) [84D8D2DE] (AR v2)Track 13 accurately ripped (confidence 2) [1C8EC068] (AR v1)Track 14 accurately ripped (confidence 2) [B1AD78A7] (AR v1)
All tracks accurately ripped
End of status report
==== Log checksum A091A9637587E984E03E719722A88FB9155BF29EA230FB87CDABC05B09E139BA ====

Содержание индексной карты (.CUE)

REM GENRE "Lounge/Downtempo/Lo-fi/Jazzy/Acid Jazz/House"REM DATE 2008REM DISCID C00F760EREM COMMENT "ExactAudioCopy v1.3"PERFORMER "Various Artists"TITLE "Tokyo Fashion District"REM COMPOSER ""FILE "Various Artists - Tokyo Fashion District.flac" WAVE TRACK 01 AUDIO TITLE "Find Illusion (DJ Kawasaki Remix) " PERFORMER "Slowly Feat. Alison Crockett" REM COMPOSER "" INDEX 01 00:00:00 TRACK 02 AUDIO TITLE "You Can Make It " PERFORMER "DJ Kawasaki Feat. Tasita D'Mour" REM COMPOSER "" INDEX 01 04:05:51 TRACK 03 AUDIO TITLE "Another Chance" PERFORMER "Wez Clarke & Maxine Hardcastle Feat. The Lovely Sara" REM COMPOSER "" INDEX 01 08:24:28 TRACK 04 AUDIO TITLE "I'll Stay Right Here (Woody Bianchi Right Mix)" PERFORMER "Rochelle Fleming" REM COMPOSER "" INDEX 01 12:54:68 TRACK 05 AUDIO TITLE "Beautiful (Mark Picchiotti Vocal Mix)" PERFORMER "Jada" REM COMPOSER "" INDEX 00 17:44:13 INDEX 01 17:44:17 TRACK 06 AUDIO TITLE "Stalk You (DJ Kawasaki Remix)" PERFORMER "Ananda Project" REM COMPOSER "" INDEX 01 22:29:54 TRACK 07 AUDIO TITLE "Between Sky and Sea (Jason Bentley Remix)" PERFORMER "Dive Index" REM COMPOSER "" INDEX 01 27:29:08 TRACK 08 AUDIO TITLE "Momma's Groove (Original Mix)" PERFORMER "Osunlade" REM COMPOSER "" INDEX 01 32:21:30 TRACK 09 AUDIO TITLE "It's About Love (Louis Botella Remix)" PERFORMER "Charles Laster II" REM COMPOSER "" INDEX 01 36:56:46 TRACK 10 AUDIO TITLE "Only One (Original Mix)" PERFORMER "Chris Lake Feat. Nastala" REM COMPOSER "" INDEX 01 41:55:60 TRACK 11 AUDIO TITLE "In My Head (DJ Kawasaki Remix)" PERFORMER "Kaori" REM COMPOSER "" INDEX 01 46:16:42 TRACK 12 AUDIO TITLE "Come Fly Away (Soha & Adam K Remix)" PERFORMER "Benny Benassi Feat. Channing" REM COMPOSER "" INDEX 01 50:58:21 TRACK 13 AUDIO TITLE "Ain't Nobody (Club Mix)" PERFORMER "Rivaz" REM COMPOSER "" INDEX 01 56:09:54 TRACK 14 AUDIO TITLE "Stop (Diego Donati Remix)" PERFORMER "Consoul Trainin Feat. Joan Kolova" REM COMPOSER "" INDEX 01 61:01:72


[torrentc.info]_t_5491547.torrent
Торрент: Зарегистрирован ·  [ 2017-12-14 23:48 ] ·  9a583244c85833dde6f5e82a53407f4432e2b6ea

18 KB

Статус: проверено
Скачан: 0 раз
Размер: 887 MB
Оценка: 
(Голосов: 0)
Сказали спасибо: 0  Спасибо
Похожие темы
[Профиль]    [ЛС]
Показать сообщения:    
Ответить на тему

Текущее время: Сегодня 05:00

Часовой пояс: GMT + 7



Вы не можете начинать темы
Вы не можете отвечать на сообщения
Вы не можете редактировать свои сообщения
Вы не можете удалять свои сообщения
Вы не можете голосовать в опросах
Вы не можете прикреплять файлы к сообщениям
Вы можете скачивать файлы