(Lounge/Downtempo/Lo-fi/Jazzy/Acid Jazz/House) [CD] VA - Tokyo Fashion District 2 - 2011, FLAC (image+.cue), lossless

Ответить на тему
Статистика раздачи [Обновить пиров]
Размер:  894 MB   |    Зарегистрирован:  1 год   |    Скачан:  0 раз

Полного источника не было: Никогда

 
   
 
 
 
Автор Сообщение

torrentc.info

Создавать темы 14-Дек-2017 23:51

[Цитировать]

Various Artists / Tokyo Fashion District 2 Жанр: Lounge/Downtempo/Lo-fi/Jazzy/Acid Jazz/House
Носитель: CD
Страна-производитель диска (релиза): Italy
Год издания: 2011
Издатель (лейбл): Cool D:Vision
Номер по каталогу: CLD CD 079/11
Аудиокодек: FLAC (*.flac)
Тип рипа: image+.cue
Битрейт аудио: lossless
Продолжительность: 02:08:12
Источник (релизер): DavidVI
Наличие сканов в содержимом раздачи: да

СD1 - DayТреклист

01 Yoko Kanno - Little Black Book (01:29)
02 Nitin Sawhney - Ek Jaan (Bob Holroyd Deep Blue Mix) (03:44)
03 Yukijobo - Supernova Sky (03:36)
04 Naoki Kenji - Tonight (03:51)
05 Kuniyuki Takahashi Feat. Kristiina Tuomi - Deliverance (05:42)
06 Polaris - Nikko's Dream (05:33)
07 S-Tone Inc. - My Only Man (03:55)
08 Kylie Auldist - One Goodbye (Hint Remix) (04:51)
09 The Invisible Session - I'll Be Your Wings (The M&D Mix By Mitchell&Dewbury) (05:06)
10 Luis Ferri Feat. Adi Souza - Jurubeba (04:44)
11 Nicola Conte - Kind Of Sunshine (04:37)
12 Samp Brothers - Jazz Di Mezzaluna (05:10)
13 Jazztronik - Colour Of Days (05:02)
14 Mop Mop - The Lowered Flag (04:49)

Лог создания рипа

Exact Audio Copy V1.3 from 2. September 2016
EAC extraction logfile from 10. December 2017, 16:58
Various Artists / Tokyo Fashion District 2
Used drive : MATSHITABD-RE UJ260 Adapter: 1 ID: 0
Read mode : SecureUtilize accurate stream : YesDefeat audio cache : YesMake use of C2 pointers : No
Read offset correction : 103Overread into Lead-In and Lead-Out : NoFill up missing offset samples with silence : YesDelete leading and trailing silent blocks : NoNull samples used in CRC calculations : YesUsed interface : Native Win32 interface for Win NT & 2000
Used output format : User Defined EncoderSelected bitrate : 128 kBit/sQuality : HighAdd ID3 tag : NoCommand line compressor : C:\Program Files (x86)\Exact Audio Copy\Flac\flac.exeAdditional command line options : -V -8 -T "Date=%year%" -T "Genre=%genre%" %source%
TOC of the extracted CD
Track | Start | Length | Start sector | End sector --------------------------------------------------------- 1 | 0:00.00 | 1:29.39 | 0 | 6713 2 | 1:29.39 | 3:44.32 | 6714 | 23545 3 | 5:13.71 | 3:36.13 | 23546 | 39758 4 | 8:50.09 | 3:51.35 | 39759 | 57118 5 | 12:41.44 | 5:42.23 | 57119 | 82791 6 | 18:23.67 | 5:33.35 | 82792 | 107801 7 | 23:57.27 | 3:55.60 | 107802 | 125486 8 | 27:53.12 | 4:51.50 | 125487 | 147361 9 | 32:44.62 | 5:06.22 | 147362 | 170333 10 | 37:51.09 | 4:44.34 | 170334 | 191667 11 | 42:35.43 | 4:37.60 | 191668 | 212502 12 | 47:13.28 | 5:10.70 | 212503 | 235822 13 | 52:24.23 | 5:02.52 | 235823 | 258524 14 | 57:27.00 | 4:49.20 | 258525 | 280219
Range status and errors
Selected range
Filename D:\Music\Tokyo Fashion District 2\CD1 - Day\Various Artists - Tokyo Fashion District 2.wav
Peak level 100.0 % Extraction speed 4.3 X Range quality 100.0 % Test CRC A53D4C01 Copy CRC A53D4C01 Copy OK
No errors occurred
AccurateRip summary
Track 1 accurately ripped (confidence 1) [E3C91ED9] (AR v2)Track 2 accurately ripped (confidence 1) [D241E203] (AR v2)Track 3 accurately ripped (confidence 1) [2BCEC85B] (AR v2)Track 4 accurately ripped (confidence 1) [625C8EC7] (AR v2)Track 5 accurately ripped (confidence 1) [5C7BAD7A] (AR v2)Track 6 accurately ripped (confidence 1) [E8F7455D] (AR v2)Track 7 accurately ripped (confidence 1) [F7F143D2] (AR v2)Track 8 accurately ripped (confidence 1) [AD51E6D0] (AR v2)Track 9 accurately ripped (confidence 1) [4B782E79] (AR v2)Track 10 accurately ripped (confidence 1) [CBBF020E] (AR v2)Track 11 accurately ripped (confidence 1) [4F01C6D3] (AR v2)Track 12 accurately ripped (confidence 1) [0FD72075] (AR v2)Track 13 accurately ripped (confidence 1) [6ABB261A] (AR v2)Track 14 accurately ripped (confidence 1) [9AD7F960] (AR v2)
All tracks accurately ripped
End of status report
==== Log checksum 2BCC2EC469BE34D5B5572F7F467AE936C254162CD6AF6C43BE547E9F2CCCD993 ====

Содержание индексной карты (.CUE)

REM GENRE "Lounge/Downtempo/Lo-fi/Jazzy/Acid Jazz/House"REM DATE 2011REM DISCID C50E980EREM COMMENT "ExactAudioCopy v1.3"PERFORMER "Various Artists"TITLE "Tokyo Fashion District 2"REM COMPOSER ""FILE "Various Artists - Tokyo Fashion District 2.flac" WAVE TRACK 01 AUDIO TITLE "Little Black Book" PERFORMER "Yoko Kanno" REM COMPOSER "" INDEX 01 00:00:00 TRACK 02 AUDIO TITLE "Ek Jaan (Bob Holroyd Deep Blue Mix)" PERFORMER "Nitin Sawhney " REM COMPOSER "" INDEX 01 01:29:39 TRACK 03 AUDIO TITLE "Supernova Sky" PERFORMER "Yukijobo" REM COMPOSER "" INDEX 01 05:13:71 TRACK 04 AUDIO TITLE "Tonight" PERFORMER "Naoki Kenji" REM COMPOSER "" INDEX 01 08:50:09 TRACK 05 AUDIO TITLE "Deliverance" PERFORMER "Kuniyuki Takahashi Feat. Kristiina Tuomi" REM COMPOSER "" INDEX 01 12:41:44 TRACK 06 AUDIO TITLE "Nikko's Dream" PERFORMER "Polaris" REM COMPOSER "" INDEX 01 18:23:67 TRACK 07 AUDIO TITLE "My Only Man" PERFORMER "S-Tone Inc." REM COMPOSER "" INDEX 01 23:57:27 TRACK 08 AUDIO TITLE "One Goodbye (Hint Remix)" PERFORMER "Kylie Auldist" REM COMPOSER "" INDEX 01 27:53:12 TRACK 09 AUDIO TITLE "I'll Be Your Wings (The M&D Mix By Mitchell&Dewbury)" PERFORMER "The Invisible Session" REM COMPOSER "" INDEX 01 32:44:62 TRACK 10 AUDIO TITLE "Jurubeba" PERFORMER "Luis Ferri Feat. Adi Souza" REM COMPOSER "" INDEX 01 37:51:09 TRACK 11 AUDIO TITLE "Kind Of Sunshine" PERFORMER "Nicola Conte" REM COMPOSER "" INDEX 01 42:35:43 TRACK 12 AUDIO TITLE "Jazz Di Mezzaluna" PERFORMER "Samp Brothers" REM COMPOSER "" INDEX 01 47:13:28 TRACK 13 AUDIO TITLE "Colour Of Days" PERFORMER "Jazztronik" REM COMPOSER "" INDEX 01 52:24:23 TRACK 14 AUDIO TITLE "The Lowered Flag" PERFORMER "Mop Mop" REM COMPOSER "" INDEX 01 57:27:00

СD2 - NightТреклист

01 DJ Kawasaki Feat. Lena Fuji - Bright Like Light (04:45)
02 Yukihiro Fukutomi Feat. Rich Medina - Equality Part 2 (04:43)
03 Victor Davies - Gold & Diamonds (DJ Kawasaki Remix) (05:16)
04 Sybil - Troubled Waters (Matthias Heilbronn Philly Club) (05:09)
05 Yukihiro Fukutomi Feat. Lady Alma - Peace (Dimitri From Paris Remix) (03:50)
06 Jared Dietch Feat. Adrienne Mack-Davis - Turn Me On (04:34)
07 Lee Kalt & Mark Alston Мs. Harry Romero Feat. Mlu - It's Over Now (05:04)
08 Carl Kennedy & Tommy Trash Feat. Rosie Henshaw - Black Water (04:56)
09 The Bamboos - Keep Me In Mind (Randomer Mix) (04:44)
10 Rony Seikaly - The World Is Beautiful (05:03)
11 Markus Binapfl & Erick Morillo Feat. Fiora Cutler - Alive (04:37)
12 Team Factor Feat. Kenny Bobien - It Feels Good (04:52)
13 Benny Benassi Feat. Gary Go - Cinema (03:28)
14 Fabio Nobile - Zozoi (Yukihiro Fukutomi Remix) (04:46)

Лог создания рипа

Exact Audio Copy V1.3 from 2. September 2016
EAC extraction logfile from 10. December 2017, 17:40
Various Artists / Tokyo Fashion District 2
Used drive : MATSHITABD-RE UJ260 Adapter: 1 ID: 0
Read mode : SecureUtilize accurate stream : YesDefeat audio cache : YesMake use of C2 pointers : No
Read offset correction : 103Overread into Lead-In and Lead-Out : NoFill up missing offset samples with silence : YesDelete leading and trailing silent blocks : NoNull samples used in CRC calculations : YesUsed interface : Native Win32 interface for Win NT & 2000
Used output format : User Defined EncoderSelected bitrate : 128 kBit/sQuality : HighAdd ID3 tag : NoCommand line compressor : C:\Program Files (x86)\Exact Audio Copy\Flac\flac.exeAdditional command line options : -V -8 -T "Date=%year%" -T "Genre=%genre%" %source%
TOC of the extracted CD
Track | Start | Length | Start sector | End sector --------------------------------------------------------- 1 | 0:00.00 | 4:45.60 | 0 | 21434 2 | 4:45.60 | 4:43.62 | 21435 | 42721 3 | 9:29.47 | 5:16.58 | 42722 | 66479 4 | 14:46.30 | 5:09.23 | 66480 | 89677 5 | 19:55.53 | 3:50.34 | 89678 | 106961 6 | 23:46.12 | 4:34.08 | 106962 | 127519 7 | 28:20.20 | 5:04.60 | 127520 | 150379 8 | 33:25.05 | 4:56.46 | 150380 | 172625 9 | 38:21.51 | 4:44.74 | 172626 | 193999 10 | 43:06.50 | 5:03.57 | 194000 | 216781 11 | 48:10.32 | 4:37.48 | 216782 | 237604 12 | 52:48.05 | 4:52.67 | 237605 | 259571 13 | 57:40.72 | 3:28.53 | 259572 | 275224 14 | 61:09.50 | 4:46.52 | 275225 | 296726
Range status and errors
Selected range
Filename D:\Music\Tokyo Fashion District 2\CD2 - Night\Various Artists - Tokyo Fashion District 2.wav
Peak level 100.0 % Extraction speed 4.3 X Range quality 100.0 % Test CRC DE097856 Copy CRC DE097856 Copy OK
No errors occurred
AccurateRip summary
Track 1 not present in databaseTrack 2 not present in databaseTrack 3 not present in databaseTrack 4 not present in databaseTrack 5 not present in databaseTrack 6 not present in databaseTrack 7 not present in databaseTrack 8 not present in databaseTrack 9 not present in databaseTrack 10 not present in databaseTrack 11 not present in databaseTrack 12 not present in databaseTrack 13 not present in databaseTrack 14 not present in database
None of the tracks are present in the AccurateRip database
End of status report
==== Log checksum 8C4191F074B4A5912E67CF7B27B2423CA468E1B4D5332D544593F498B730E68F ====

Содержание индексной карты (.CUE)

REM GENRE "Lounge/Downtempo/Lo-fi/Jazzy/Acid Jazz/House"REM DATE 2011REM DISCID CB0F740EREM COMMENT "ExactAudioCopy v1.3"PERFORMER "Various Artists"TITLE "Tokyo Fashion District 2"REM COMPOSER ""FILE "Various Artists - Tokyo Fashion District 2.flac" WAVE TRACK 01 AUDIO TITLE "Bright Like Light " PERFORMER "DJ Kawasaki Feat. Lena Fuji" REM COMPOSER "" INDEX 01 00:00:00 TRACK 02 AUDIO TITLE "Equality Part 2" PERFORMER "Yukihiro Fukutomi Feat. Rich Medina" REM COMPOSER "" INDEX 01 04:45:60 TRACK 03 AUDIO TITLE "Gold & Diamonds (DJ Kawasaki Remix) " PERFORMER "Victor Davies " REM COMPOSER "" INDEX 01 09:29:47 TRACK 04 AUDIO TITLE "Troubled Waters (Matthias Heilbronn Philly Club) " PERFORMER "Sybil" REM COMPOSER "" INDEX 01 14:46:30 TRACK 05 AUDIO TITLE "Peace (Dimitri From Paris Remix)" PERFORMER "Yukihiro Fukutomi Feat. Lady Alma" REM COMPOSER "" INDEX 01 19:55:53 TRACK 06 AUDIO TITLE "Turn Me On" PERFORMER "Jared Dietch Feat. Adrienne Mack-Davis" REM COMPOSER "" INDEX 01 23:46:12 TRACK 07 AUDIO TITLE "It's Over Now" PERFORMER "Lee Kalt & Mark Alston Мs. Harry Romero Feat. Mlu" REM COMPOSER "" INDEX 01 28:20:20 TRACK 08 AUDIO TITLE "Black Water" PERFORMER "Carl Kennedy & Tommy Trash Feat. Rosie Henshaw" REM COMPOSER "" INDEX 01 33:25:05 TRACK 09 AUDIO TITLE "Keep Me In Mind (Randomer Mix)" PERFORMER "The Bamboos" REM COMPOSER "" INDEX 01 38:21:51 TRACK 10 AUDIO TITLE "The World Is Beautiful" PERFORMER "Rony Seikaly" REM COMPOSER "" INDEX 01 43:06:50 TRACK 11 AUDIO TITLE "Alive" PERFORMER "Markus Binapfl & Erick Morillo Feat. Fiora Cutler" REM COMPOSER "" INDEX 01 48:10:32 TRACK 12 AUDIO TITLE "It Feels Good" PERFORMER "Team Factor Feat. Kenny Bobien" REM COMPOSER "" INDEX 01 52:48:05 TRACK 13 AUDIO TITLE "Cinema" PERFORMER "Benny Benassi Feat. Gary Go" REM COMPOSER "" INDEX 00 57:40:15 INDEX 01 57:40:72 TRACK 14 AUDIO TITLE "Zozoi (Yukihiro Fukutomi Remix)" PERFORMER "Fabio Nobile" REM COMPOSER "" INDEX 01 61:09:50


[torrentc.info]_t_5491995.torrent
Торрент: Зарегистрирован ·  [ 2017-12-14 23:48 ] ·  04f215acc1eaf44542a68c1874460d3968e3d927

18 KB

Статус: проверено
Скачан: 0 раз
Размер: 894 MB
Оценка: 
(Голосов: 0)
Сказали спасибо: 0  Спасибо
Похожие темы
[Профиль]    [ЛС]
Показать сообщения:    
Ответить на тему

Текущее время: Сегодня 23:21

Часовой пояс: GMT + 7



Вы не можете начинать темы
Вы не можете отвечать на сообщения
Вы не можете редактировать свои сообщения
Вы не можете удалять свои сообщения
Вы не можете голосовать в опросах
Вы не можете прикреплять файлы к сообщениям
Вы можете скачивать файлы