(Cool, Post-Bop) [CD] Jim Hall - Concierto - 1975 (1984 Japan Edition), FLAC (tracks+.cue), lossless

Ответить на тему
Статистика раздачи [Обновить пиров]
Размер:  215 MB   |    Зарегистрирован:  1 год   |    Скачан:  0 раз

Полного источника не было: Никогда

Личеров:  1  [  0 KB/s  ]   Подробная статистика скачивающих
 
   
 
 
 
Автор Сообщение

torrentc.info

Создавать темы 13-Дек-2017 19:31

[Цитировать]

Jim Hall - Concierto
Жанр: Cool, Post-Bop
Носитель: CD
Страна-производитель диска (релиза): Япония
Год издания: 1984
Издатель (лейбл): CTI Records/King Record
Номер по каталогу: K35Y 6009
Страна исполнителя (группы): США
Аудиокодек: FLAC (*.flac)
Тип рипа: tracks+.cue
Битрейт аудио: lossless
Продолжительность: 38:08
Источник (релизер): dreamteamcd
Наличие сканов в содержимом раздачи: да
Треклист:
01. You'd Be So Nice to Come Home To (Porter) - 7:08
02. Two's Blues (Jim Hall) - 3:53
03. The Answer Is Yes (Jane Hall) - 7:44
04. Concierto de Aranjuez (Rodrigo) - 19:23
Состав:
Jim Hall - guitar
Roland Hanna - piano
Ron Carter - bass
Steve Gadd - drums
Chet Baker - trumpet
Paul Desmond - alto saxophone
Recorded at Van Gelder Studios, Englewood Cliffs, NJ in April 1975.

Лог создания рипа

Exact Audio Copy V1.0 beta 3 from 29. August 2011
EAC extraction logfile from 5. August 2017, 13:17
Jim Hall / Concierto
Used drive : HL-DT-STDVDRAM GU70N Adapter: 0 ID: 0
Read mode : SecureUtilize accurate stream : YesDefeat audio cache : YesMake use of C2 pointers : No
Read offset correction : 48Overread into Lead-In and Lead-Out : NoFill up missing offset samples with silence : YesDelete leading and trailing silent blocks : NoNull samples used in CRC calculations : YesUsed interface : Native Win32 interface for Win NT & 2000Gap handling : Appended to previous track
Used output format : User Defined EncoderSelected bitrate : 128 kBit/sQuality : HighAdd ID3 tag : NoCommand line compressor : C:\Program Files (x86)\Exact Audio Copy\Flac\flac.exeAdditional command line options : -8 -V -T "ARTIST=%artist%" -T "TITLE=%title%" -T "ALBUM=%albumtitle%" -T "DATE=%year%" -T "TRACKNUMBER=%tracknr%" -T "TOTALTRACKS=%numtracks%" -T "GENRE=%genre%" -T "ALBUMARTIST=%albumartist%" -T "ALBUM ARTIST=%albumartist%" -T "COMMENT=EAC Secure Mode, Test & Copy, AccurateRip, FLAC -8" %source%
TOC of the extracted CD
Track | Start | Length | Start sector | End sector --------------------------------------------------------- 1 | 0:00.00 | 7:08.00 | 0 | 32099 2 | 7:08.00 | 3:52.40 | 32100 | 49539 3 | 11:00.40 | 7:44.25 | 49540 | 84364 4 | 18:44.65 | 19:23.15 | 84365 | 171604
Track 1
Filename F:\EAC\Jim Hall - Concierto (1975) [FLAC] {CTI, K35Y-6009, Early Press}\01 - You'd Be So Nice To Come Home To.wav
Pre-gap length 0:00:02.00
Peak level 79.4 % Extraction speed 1.4 X Track quality 100.0 % Test CRC 812D7B87 Copy CRC 812D7B87 Accurately ripped (confidence 6) [B511E2BC] (AR v2) Copy OK
Track 2
Filename F:\EAC\Jim Hall - Concierto (1975) [FLAC] {CTI, K35Y-6009, Early Press}\02 - Two's Blues.wav
Peak level 65.8 % Extraction speed 1.5 X Track quality 100.0 % Test CRC BAD35CE5 Copy CRC BAD35CE5 Accurately ripped (confidence 6) [7BFFAA38] (AR v2) Copy OK
Track 3
Filename F:\EAC\Jim Hall - Concierto (1975) [FLAC] {CTI, K35Y-6009, Early Press}\03 - The Answer Is Yes.wav
Peak level 74.5 % Extraction speed 1.7 X Track quality 100.0 % Test CRC 12E67FBB Copy CRC 12E67FBB Accurately ripped (confidence 6) [2849949F] (AR v2) Copy OK
Track 4
Filename F:\EAC\Jim Hall - Concierto (1975) [FLAC] {CTI, K35Y-6009, Early Press}\04 - Concierto De Aranjuez.wav
Pre-gap length 0:00:03.05
Peak level 64.2 % Extraction speed 2.1 X Track quality 100.0 % Test CRC F612CAA3 Copy CRC F612CAA3 Accurately ripped (confidence 6) [0CE71A62] (AR v2) Copy OK
All tracks accurately ripped
No errors occurred
End of status report
---- CUETools DB Plugin V2.1.3
[CTDB TOCID: WGu07QgmwY.CNXMAY4hlnZxifos-] found, Submit result: WGu07QgmwY.CNXMAY4hlnZxifos- has been confirmed[e6448278] (28/30) Accurately ripped[c9c795aa] (01/30) No match[adfde484] (01/30) No match
==== Log checksum 1BA1CE4FEB389DBFDB06B601185F4F2119ED014688C4C3E6732BCAA4D6A6BBB3 ====

Содержание индексной карты (.CUE)

REM GENRE JazzREM DATE 1975REM DISCID 2108F004REM COMMENT "ExactAudioCopy v1.0b3"PERFORMER "Jim Hall"TITLE "Concierto"FILE "01 - You'd Be So Nice to Come Home To.wav" WAVE TRACK 01 AUDIO TITLE "You'd Be So Nice to Come Home To" PERFORMER "Jim Hall" INDEX 01 00:00:00FILE "02 - Two's Blues.wav" WAVE TRACK 02 AUDIO TITLE "Two's Blues" PERFORMER "Jim Hall" INDEX 01 00:00:00FILE "03 - The Answer Is Yes.wav" WAVE TRACK 03 AUDIO TITLE "The Answer Is Yes" PERFORMER "Jim Hall" INDEX 01 00:00:00 TRACK 04 AUDIO TITLE "Concierto de Aranjuez" PERFORMER "Jim Hall" INDEX 00 07:41:20FILE "04 - Concierto de Aranjuez.wav" WAVE INDEX 01 00:00:00

Отчет CUETools

[CUETools log; Date: 12.12.2017 17:58:13; Version: 2.1.5][CTDB TOCID: WGu07QgmwY.CNXMAY4hlnZxifos-] found.Track | CTDB Status 1 | (31/32) Accurately ripped 2 | (31/32) Accurately ripped 3 | (30/32) Accurately ripped 4 | (31/32) Accurately ripped[AccurateRip ID: 000526ca-00157d32-2108f004] found.Track [ CRC | V2 ] Status 01 [32189664|b511e2bc] (00+06/17) Accurately ripped 02 [19aae41b|7bffaa38] (00+06/17) Accurately ripped 03 [399907bc|2849949f] (00+06/17) Accurately ripped 04 [3f844e4f|0ce71a62] (00+06/18) Accurately rippedOffsetted by -392: 01 [7730aaa5] (04/17) Accurately ripped 02 [bf7975d7] (04/17) Accurately ripped 03 [cf64991f] (04/17) Accurately ripped 04 [bfebd840] (04/18) Accurately rippedOffsetted by -705: 01 [69108ef2] (00/17) No match (V2 was not tested) 02 [71260a5e] (00/17) No match (V2 was not tested) 03 [03a79d23] (00/17) No match (V2 was not tested) 04 [4acf2abd] (00/18) No match (V2 was not tested)
Track Peak [ CRC32 ] [W/O NULL] [ LOG ] -- 79,4 [E55D33C8] [FC919BA7] 01 79,4 [812D7B87] [7AC5738A] CRC32 02 65,8 [BAD35CE5] [AE0A62D0] CRC32 03 74,5 [12E67FBB] [6724F3B2] CRC32 04 64,2 [F612CAA3] [B14C9B09] CRC32

AllMusic Review by Anthony Tognazzini

Guitarist Jim Hall is the sort of musician who displays such technical expertise, imaginative conception, and elegance of line and phrase that almost any recording of his is worth hearing. Still, Concierto ranks among the best albums of his superb catalog. For starters, the personnel here is a jazz lover's dream come true. Paul Desmond (saxophone), Chet Baker (trumpet), Roland Hanna (piano), Ron Carter (bass), and Steve Gadd (drums) are on board, creating -- along with Hall -- one of the highest profile lineups ever put to tape. Yet Concierto is not about star power and showboating. As subtle, nuanced, and considered as any of Hall's output, the ensemble playing here demonstrates great group sensitivity and interplay, giving precedence to mood and atmosphere over powerhouse soloing. Conductor and arranger Don Sebesky evinces a chamber ambience from the sextet on "You'd Be So Nice to Come Home To," the smoky "The Answer Is Yes," and the Hall centerpiece "Concierto de Aranjuez."


[torrentc.info]_t_5492588.torrent
Торрент: Зарегистрирован ·  [ 2017-12-13 19:30 ] ·  f5fc39a56f0006e899256a87543cf87144ed5dab

18 KB

Статус: проверено
Скачан: 0 раз
Размер: 215 MB
Оценка: 
(Голосов: 0)
Сказали спасибо: 0  Спасибо
Похожие темы
[Профиль]    [ЛС]
Показать сообщения:    
Ответить на тему

Текущее время: Сегодня 20:19

Часовой пояс: GMT + 7



Вы не можете начинать темы
Вы не можете отвечать на сообщения
Вы не можете редактировать свои сообщения
Вы не можете удалять свои сообщения
Вы не можете голосовать в опросах
Вы не можете прикреплять файлы к сообщениям
Вы можете скачивать файлы