(Death Metal, Black Metal) [CD] VA - Touch Of Death (Black Mark Compilation) - 1992, FLAC (image+.cue), lossless

Ответить на тему
Статистика раздачи [Обновить пиров]
Размер:  379 MB   |    Зарегистрирован:  1 год 3 месяца   |    Скачан:  0 раз

Полного источника не было: Никогда

 
   
 
 
 
Автор Сообщение

torrentc.info

Создавать темы 16-Фев-2017 09:33

[Цитировать]

Touch Of Death (Black Mark Compilation)
Жанр: Death Metal, Black Metal
Носитель: CD
Страна-производитель диска: Germany
Год издания: 1992
Издатель (лейбл): Black Mark Production
Номер по каталогу: BMCD 26
Страна: International
Аудиокодек: FLAC (*.flac)
Тип рипа: image+.cue
Битрейт аудио: lossless
Продолжительность: 00:52:01
Источник (релизер): Original CD (stranger296)
Наличие сканов в содержимом раздачи: да
Треклист:
1 Fleshcrawl - Perpetual Dawn 6:36
2 Agressor - Primeval Transubstantation 4:01
3 Cemetary - Where The Rivers Of Madness Sream 4:34
4 Seance - Who Will Not Be Dead 3:31
5 Rosicrucian - Within The Silence 6:15
6 Invocator - Excursion Demise 5:35
7 Necrosanct - Solace 2:21
8 Tribulation - Born Bizarre 2:47
9 Edge Of Sanity - Enigma 7:01
10 Bathory - Blood And Iron 9:20

Лог создания рипа

Exact Audio Copy V1.0 beta 3 from 29. August 2011
EAC extraction logfile from 3. July 2014, 13:34
Various Artists / Touch of Death
Used drive : Optiarc DVD RW AD-7203A Adapter: 0 ID: 1
Read mode : SecureUtilize accurate stream : YesDefeat audio cache : YesMake use of C2 pointers : No
Read offset correction : 48Overread into Lead-In and Lead-Out : NoFill up missing offset samples with silence : YesDelete leading and trailing silent blocks : NoNull samples used in CRC calculations : YesUsed interface : Native Win32 interface for Win NT & 2000
Used output format : User Defined EncoderSelected bitrate : 1024 kBit/sQuality : HighAdd ID3 tag : NoCommand line compressor : C:\Program Files\Exact Audio Copy\Flac\flac.exeAdditional command line options : -V -8 -T "Date=%year%" -T "Genre=%genre%" %source%
TOC of the extracted CD
Track | Start | Length | Start sector | End sector --------------------------------------------------------- 1 | 0:00.00 | 6:40.45 | 0 | 30044 2 | 6:40.45 | 4:03.05 | 30045 | 48274 3 | 10:43.50 | 4:34.33 | 48275 | 68857 4 | 15:18.08 | 3:33.55 | 68858 | 84887 5 | 18:51.63 | 6:16.45 | 84888 | 113132 6 | 25:08.33 | 5:38.72 | 113133 | 138554 7 | 30:47.30 | 2:24.53 | 138555 | 149407 8 | 33:12.08 | 2:49.30 | 149408 | 162112 9 | 36:01.38 | 6:56.50 | 162113 | 193362 10 | 42:58.13 | 9:21.00 | 193363 | 235437
Range status and errors
Selected range
Filename G:\Music\Lossless\Various Artist - Touch Of Death (Black Mark Compilation, 1992) - by stranger296\Various Artists - Touch of Death.wav
Peak level 100.0 % Extraction speed 1.2 X Range quality 100.0 % Test CRC C8C0A860 Copy CRC C8C0A860 Copy OK
No errors occurred
AccurateRip summary
Track 1 accurately ripped (confidence 2) [F94692B2] (AR v1)Track 2 accurately ripped (confidence 2) [81ACDF14] (AR v1)Track 3 accurately ripped (confidence 2) [0D97B32A] (AR v1)Track 4 accurately ripped (confidence 2) [E6EFD63C] (AR v1)Track 5 accurately ripped (confidence 2) [C285BF0A] (AR v1)Track 6 accurately ripped (confidence 2) [49A6A347] (AR v1)Track 7 accurately ripped (confidence 2) [425DAB4F] (AR v1)Track 8 accurately ripped (confidence 2) [E9727296] (AR v1)Track 9 accurately ripped (confidence 1) [FBACF6CD] (AR v1)Track 10 accurately ripped (confidence 2) [6854F511] (AR v1)
All tracks accurately ripped
End of status report
---- CUETools DB Plugin V2.1.3
[CTDB TOCID: AeMYCXD3Uv4.yQ11Gig2ToWb7RQ-] found, Submit result: AeMYCXD3Uv4.yQ11Gig2ToWb7RQ- has been confirmed[e958963b] (1/1) Accurately ripped
==== Log checksum AC2D8700961334830ABDB9F1BF2965542E01A5C434A6CA22BB809F859F299CF4 ====

Содержание индексной карты (.CUE)

REM GENRE MetalREM DATE 1992REM DISCID 790C430AREM COMMENT "ExactAudioCopy v1.0b3"PERFORMER "Various Artists"TITLE "Touch of Death"FILE "Various Artists - Touch of Death.flac" WAVE TRACK 01 AUDIO TITLE "Perpetual Dawn" PERFORMER "Fleshcrawl" INDEX 01 00:00:00 TRACK 02 AUDIO TITLE "Primeval Transubstantation" PERFORMER "Agressor" INDEX 00 06:39:38 INDEX 01 06:40:45 TRACK 03 AUDIO TITLE "Where The Rivers Of Madness Stream" PERFORMER "Cemetary" INDEX 00 10:41:70 INDEX 01 10:43:50 TRACK 04 AUDIO TITLE "Who Will Not Be Dead" PERFORMER "Seance" INDEX 00 15:15:63 INDEX 01 15:18:08 TRACK 05 AUDIO TITLE "Within The Silence" PERFORMER "Rosicrucian" INDEX 00 18:49:45 INDEX 01 18:51:63 TRACK 06 AUDIO TITLE "Execrusion Demise" PERFORMER "Invocator" INDEX 00 25:07:05 INDEX 01 25:08:33 TRACK 07 AUDIO TITLE "Solace" PERFORMER "Necrosanct" INDEX 00 30:46:18 INDEX 01 30:47:30 TRACK 08 AUDIO TITLE "Born Bizarre" PERFORMER "Tribulation" INDEX 00 33:09:50 INDEX 01 33:12:08 TRACK 09 AUDIO TITLE "Enigma" PERFORMER "Edge of Sanity" INDEX 00 35:59:50 INDEX 01 36:01:38 TRACK 10 AUDIO TITLE "Blood And Iron" PERFORMER "Bathory" INDEX 00 42:55:38 INDEX 01 42:58:13

Лог проверки качества

-----------------------
DON'T MODIFY THIS FILE
-----------------------
PERFORMER: auCDtect Task Manager, ver. 1.5.1RC4 build 1.5.1.5Copyright (c) 2008-2010 y-soft. All rights reservedhttp://y-soft.org
ANALYZER: auCDtect: CD records authenticity detector, version 0.8.2Copyright (c) 2004 Oleg Berngardt. All rights reserved.Copyright (c) 2004 Alexander Djourik. All rights reserved.
FILE: Various Artists - Touch of Death.flac Size: 392887515 Hash: A06EF54D372BF8FAD0FB1B56B94669F1 Accuracy: -m0 Conclusion: CDDA 100% Signature: 24609F189D0F8BCAB0F5A1EB6E92A3B44CE0FD07

Скриншот спектра частот

Скан матрицы

Об альбоме (сборнике)

http://www.discogs.com/Various-Touch-Of-Death/release/1578784
[url=tracker.php?rid=9850715]Мои раздачи[/url]


[torrentc.info]_torrent-4775233.torrent
Торрент: Зарегистрирован ·  [ 2017-02-16 09:12 ] ·  0827f2108b967b049c66a58fa56b8541ddcc018b

16 KB

Статус: проверено
Скачан: 0 раз
Размер: 379 MB
Оценка: 
(Голосов: 0)
Сказали спасибо: 0  Спасибо
Похожие темы
[Профиль]    [ЛС]
Показать сообщения:    
Ответить на тему

Текущее время: Сегодня 21:00

Часовой пояс: GMT + 7



Вы не можете начинать темы
Вы не можете отвечать на сообщения
Вы не можете редактировать свои сообщения
Вы не можете удалять свои сообщения
Вы не можете голосовать в опросах
Вы не можете прикреплять файлы к сообщениям
Вы можете скачивать файлы