(Metal & Rock) [CD] VA - Entulho Sonoro 2 / 2007 - 2007, FLAC (image+.cue), lossless

Ответить на тему
Статистика раздачи [Обновить пиров]
Размер:  610 MB   |    Зарегистрирован:  1 год 3 месяца   |    Скачан:  0 раз

Полного источника не было: Никогда

 
   
 
 
 
Автор Сообщение

torrentc.info

Создавать темы 16-Фев-2017 09:32

[Цитировать]

Various Artists / Entulho Sonoro 2 / 2007
Жанр: Metal & Rock
Носитель: CD
Год издания: 2007
Издатель (лейбл): Underworld - Entulho Informativo
Номер по каталогу: none
Страна исполнителя (группы): Portugal
Аудиокодек: FLAC (*.flac)
Тип рипа: image+.cue
Битрейт аудио: lossless
Продолжительность: 01:18:30
Источник (релизер): свой рип
Наличие сканов в содержимом раздачи: да
Трек-лист:
01. Moonspell - Phantom North*. (05:35)
02. Apse - Shade Of The Moor. (04:44)
03. Capitão Fantasma - Cidade Suja. (02:47)
04. The Poppers - 45. (03:04)
05. Murdering Tripping Blues - I'll Be Your Narcotic. (03:23)
06. Molestia - Exquisite Sado Suite. (03:22)
07. W.A.K.O. - Nihilist War God. (03:58)
08. Damien's Trail Of Blood - Pain Free Rebirth. (03:37)
09. BlackSunrise - In The Land Of The Blind. (04:08)
10. Fiona At Forty - Bittersweet Dominatrix. (03:35)
11. Larkin - A Creative Context. (04:58)
12. Waste Disposal Machine - Girl Within A Motorcycle. (04:08)
13. Kronos - Il Faut Etre Absolument Moderne. (04:43)
14. Dr Salazar - Sensação F.D.P. (03:39)
15. Hyubris - Fadas. (05:41)
16. Clockwork Boys - Casino. (04:30)
17. Ervas Daninhas - Pedras Da Calçada. (02:40)
18. Barafunda Total - Um Passo Para Crescer. (03:22)
19. Partisan Kane - The Effect Of Summer On Decaying Bodies. (06:36)
_____________________
* Exclusive song for Portugal.- -

Лог создания рипа

Exact Audio Copy V1.1 from 23. June 2015
EAC extraction logfile from 2. December 2015, 17:19
Various Artists / Entulho Sonoro 2 / 2007
Used drive : PIONEER DVD-RW DVR-111D Adapter: 1 ID: 0
Read mode : SecureUtilize accurate stream : YesDefeat audio cache : YesMake use of C2 pointers : No
Read offset correction : 48Overread into Lead-In and Lead-Out : NoFill up missing offset samples with silence : YesDelete leading and trailing silent blocks : NoNull samples used in CRC calculations : YesUsed interface : Native Win32 interface for Win NT & 2000
Used output format : User Defined EncoderSelected bitrate : 1024 kBit/sQuality : HighAdd ID3 tag : NoCommand line compressor : D:\Flac\flac.exeAdditional command line options : -V -8 -T "Date=%year%" -T "Genre=%genre%" %source%
TOC of the extracted CD
Track | Start | Length | Start sector | End sector --------------------------------------------------------- 1 | 0:00.00 | 5:34.36 | 0 | 25085 2 | 5:34.36 | 4:44.00 | 25086 | 46385 3 | 10:18.36 | 2:46.38 | 46386 | 58873 4 | 13:04.74 | 3:03.73 | 58874 | 72671 5 | 16:08.72 | 3:22.32 | 72672 | 87853 6 | 19:31.29 | 3:21.03 | 87854 | 102931 7 | 22:52.32 | 3:57.56 | 102932 | 120762 8 | 26:50.13 | 3:36.07 | 120763 | 136969 9 | 30:26.20 | 4:07.48 | 136970 | 155542 10 | 34:33.68 | 3:34.06 | 155543 | 171598 11 | 38:07.74 | 4:57.62 | 171599 | 193935 12 | 43:05.61 | 4:07.61 | 193936 | 212521 13 | 47:13.47 | 4:42.47 | 212522 | 233718 14 | 51:56.19 | 3:38.09 | 233719 | 250077 15 | 55:34.28 | 5:40.02 | 250078 | 275579 16 | 61:14.30 | 4:29.23 | 275580 | 295777 17 | 65:43.53 | 2:39.43 | 295778 | 307745 18 | 68:23.21 | 3:21.31 | 307746 | 322851 19 | 71:44.52 | 6:35.55 | 322852 | 352531
Range status and errors
Selected range
Filename D:\Rips from Dаrkmind\Various Artists - Entulho Sonoro 2 - 2007.wav
Peak level 100.0 % Extraction speed 7.5 X Range quality 100.0 % Test CRC 95A00673 Copy CRC 95A00673 Copy OK
No errors occurred
AccurateRip summary
Track 1 not present in databaseTrack 2 not present in databaseTrack 3 not present in databaseTrack 4 not present in databaseTrack 5 not present in databaseTrack 6 not present in databaseTrack 7 not present in databaseTrack 8 not present in databaseTrack 9 not present in databaseTrack 10 not present in databaseTrack 11 not present in databaseTrack 12 not present in databaseTrack 13 not present in databaseTrack 14 not present in databaseTrack 15 not present in databaseTrack 16 not present in databaseTrack 17 not present in databaseTrack 18 not present in databaseTrack 19 not present in database
None of the tracks are present in the AccurateRip database
End of status report
---- CUETools DB Plugin V2.1.6
[CTDB TOCID: prKYENCBiQ333jR2wtSq1kRv_tU-] disk not present in databaseSubmit result: prKYENCBiQ333jR2wtSq1kRv_tU- has been uploaded
==== Log checksum 316A6C683945F4C381D4DFB50543380004ECD2897DAE521D7EF77510DE55A43B ====

Лог проверки качества

-----------------------
DON'T MODIFY THIS FILE
-----------------------
PERFORMER: auCDtect Task Manager, ver. 1.6.0 RC1 build 1.6.0.1Copyright (c) 2008-2010 y-soft. All rights reservedhttp://y-soft.org
ANALYZER: auCDtect: CD records authenticity detector, version 0.8.2Copyright (c) 2004 Oleg Berngardt. All rights reserved.Copyright (c) 2004 Alexander Djourik. All rights reserved.
FILE: Various Artists - Entulho Sonoro 2 - 2007.flac Size: 590469804 Hash: 759286496B5186E516828BBDA8F164D0 Accuracy: -m0 Conclusion: CDDA 100% Signature: 370F6AD1CCA756A929650EEC23E7A0131EED2434


[torrentc.info]_torrent-5129860.torrent
Торрент: Зарегистрирован ·  [ 2017-02-16 09:12 ] ·  900ab61f8b407edbc80adcc4778e7726c60a8d92

13 KB

Статус: проверено
Скачан: 0 раз
Размер: 610 MB
Оценка: 
(Голосов: 0)
Сказали спасибо: 0  Спасибо
Похожие темы
[Профиль]    [ЛС]
Показать сообщения:    
Ответить на тему

Текущее время: Сегодня 09:17

Часовой пояс: GMT + 7



Вы не можете начинать темы
Вы не можете отвечать на сообщения
Вы не можете редактировать свои сообщения
Вы не можете удалять свои сообщения
Вы не можете голосовать в опросах
Вы не можете прикреплять файлы к сообщениям
Вы можете скачивать файлы