(Black Metal, Death Metal, Gothic Metal, Heavy Metal, Thrash, Hardcore) [CD] VA - Metal For The Masses V - 200, FLAC (image+.cue), lossless

Ответить на тему
Статистика раздачи [Обновить пиров]
Размер:  1.36 GB   |    Зарегистрирован:  1 год 3 месяца   |    Скачан:  0 раз

Полного источника не было: Никогда

 
   
 
 
 
Автор Сообщение

torrentc.info

Создавать темы 16-Фев-2017 09:32

[Цитировать]

Metal For The Masses V
Жанр: Black Metal, Death Metal, Gothic Metal, Heavy Metal, Thrash, Hardcore
Носитель: CD
Страна-производитель диска (релиза): USA
Год издания: 200
Издатель (лейбл): Century Media
Номер по каталогу: 7507-2
Аудиокодек: FLAC (*.flac)
Тип рипа: image+.cue
Битрейт аудио: lossless
Продолжительность: 02:32:45
Источник (релизер): Boris1
Наличие сканов в содержимом раздачи: да

CD 1 01:15:46

01. Lacuna Coil - Closer (Radio Edit) (2:53)
02. Diecast - Fade Away (heavy edit) (3:30)
03. The Haunted - The Flood (4:07)
04. Into Eternity - Severe Emotional Distress (3:54)
05. In This Moment - Prayers (3:47)
06. Brand New Sin - Old (4:10)
07. Strapping Young Lad - Wrong Side (3:35)
08. Napalm Death - When All Is Said and Done (3:01)
09. Heaven Shall Burn - Stay the Course (3:56)
10. Celtic Frost - Ground (3:55)
11. Satryicon - The Pentagram Burns (5:38 )
12. Behemoth - DemiGod (3:33)
13. Fear My Thoughts - Blankness (3:48 )
14. Dream Evil - Fire Battle in Metal (3:11)
15. Firewind - Falling to Pieces (4:03)
16. Mercenary - Soul Decision (5:03)
17. Poisionblack - Rush (4:06)
18. God Forbid - Chains of Humanity (4:03)
19. Arch Enemy - My Apocalypse (5:25)

Лог создания рипа

Exact Audio Copy V1.0 beta 3 from 29. August 2011
EAC extraction logfile from 8. April 2016, 14:04
Various / Metal for the Masses (Disc 1)
Used drive : PIONEER BD-RW BDR-TD03 Adapter: 0 ID: 1
Read mode : SecureUtilize accurate stream : YesDefeat audio cache : YesMake use of C2 pointers : No
Read offset correction : 667Overread into Lead-In and Lead-Out : NoFill up missing offset samples with silence : YesDelete leading and trailing silent blocks : NoNull samples used in CRC calculations : YesUsed interface : Native Win32 interface for Win NT & 2000
Used output format : User Defined EncoderSelected bitrate : 768 kBit/sQuality : HighAdd ID3 tag : NoCommand line compressor : C:\Program Files (x86)\Exact Audio Copy\FLAC\FLAC.EXEAdditional command line options : -6 -V -T "ARTIST=%artist%" -T "TITLE=%title%" -T "ALBUM=%albumtitle%" -T "DATE=%year%" -T "TRACKNUMBER=%tracknr%" -T "GENRE=%genre%" -T "COMMENT=%comment%" -T "BAND=%albuminterpret%" -T "ALBUMARTIST=%albuminterpret%" -T "COMPOSER=%composer%" %haslyrics%--tag-from-file=LYRICS="%lyricsfile%"%haslyrics% -T "DISCNUMBER=%cdnumber%" -T "TOTALDISCS=%totalcds%" -T "TOTALTRACKS=%numtracks%" %hascover%--picture="%coverfile%"%hascover% %source% -o %dest%
TOC of the extracted CD
Track | Start | Length | Start sector | End sector --------------------------------------------------------- 1 | 0:00.00 | 2:53.38 | 0 | 13012 2 | 2:53.38 | 3:30.11 | 13013 | 28773 3 | 6:23.49 | 4:07.40 | 28774 | 47338 4 | 10:31.14 | 3:54.68 | 47339 | 64956 5 | 14:26.07 | 3:47.37 | 64957 | 82018 6 | 18:13.44 | 4:10.24 | 82019 | 100792 7 | 22:23.68 | 3:35.03 | 100793 | 116920 8 | 25:58.71 | 3:01.69 | 116921 | 130564 9 | 29:00.65 | 3:56.00 | 130565 | 148264 10 | 32:56.65 | 3:55.10 | 148265 | 165899 11 | 36:52.00 | 5:38.66 | 165900 | 191315 12 | 42:30.66 | 3:33.63 | 191316 | 207353 13 | 46:04.54 | 3:48.18 | 207354 | 224471 14 | 49:52.72 | 3:11.30 | 224472 | 238826 15 | 53:04.27 | 4:03.24 | 238827 | 257075 16 | 57:07.51 | 5:03.07 | 257076 | 279807 17 | 62:10.58 | 4:06.25 | 279808 | 298282 18 | 66:17.08 | 4:03.27 | 298283 | 316534 19 | 70:20.35 | 5:25.44 | 316535 | 340953
Range status and errors
Selected range
Filename C:\Users\Deris\Desktop\kpnemo.eu\MetForMas5\cd1\Various - Metal for the Masses (Disc 1).wav
Peak level 98.9 % Extraction speed 5.1 X Range quality 100.0 % Test CRC 2DC3287D Copy CRC 2DC3287D Copy OK
No errors occurred
AccurateRip summary
Track 1 accurately ripped (confidence 1) [80E22824] (AR v2)Track 2 accurately ripped (confidence 1) [B1FAF258] (AR v2)Track 3 accurately ripped (confidence 1) [CFCC26E9] (AR v2)Track 4 accurately ripped (confidence 1) [10F34919] (AR v2)Track 5 accurately ripped (confidence 1) [9522F63F] (AR v2)Track 6 accurately ripped (confidence 1) [28BA8E04] (AR v2)Track 7 accurately ripped (confidence 1) [535B96D2] (AR v2)Track 8 accurately ripped (confidence 1) [D7A8352F] (AR v2)Track 9 accurately ripped (confidence 1) [343711B7] (AR v2)Track 10 accurately ripped (confidence 1) [076FE39C] (AR v2)Track 11 accurately ripped (confidence 1) [2FBD6870] (AR v2)Track 12 accurately ripped (confidence 1) [8CC18DEE] (AR v2)Track 13 accurately ripped (confidence 1) [6638DBE4] (AR v2)Track 14 accurately ripped (confidence 1) [F138D38E] (AR v2)Track 15 accurately ripped (confidence 1) [7993EB41] (AR v2)Track 16 accurately ripped (confidence 1) [A42B4A2E] (AR v2)Track 17 accurately ripped (confidence 1) [3CD065C4] (AR v2)Track 18 accurately ripped (confidence 1) [C53766D5] (AR v2)Track 19 accurately ripped (confidence 1) [BCFF5E3B] (AR v2)
All tracks accurately ripped
End of status report
---- CUETools DB Plugin V2.1.3
[CTDB TOCID: Ttt4OmJNmi9t31D5Y10LMUoSLLs-] found, Submit result: Ttt4OmJNmi9t31D5Y10LMUoSLLs- has been confirmed[22ae1856] (1/1) Accurately ripped
==== Log checksum 1B1D45C5748DCB2145C338B06370C7E75035E844BA73CBC984EB3D4B6F45916E ====

Содержание индексной карты (.CUE)

REM GENRE MetalREM DATE 2006REM DISCID 2E11C213REM COMMENT "ExactAudioCopy v1.0b3"PERFORMER "Various"TITLE "Metal for the Masses (Disc 1)"FILE "Various - Metal for the Masses (Disc 1).flac" WAVE TRACK 01 AUDIO TITLE "Closer (Radio Edit)" PERFORMER "Lacuna Coil" INDEX 01 00:00:00 TRACK 02 AUDIO TITLE "Fade Away (heavy edit)" PERFORMER "Diecast" INDEX 01 02:53:38 TRACK 03 AUDIO TITLE "The Flood" PERFORMER "The Haunted" INDEX 01 06:23:49 TRACK 04 AUDIO TITLE "Severe Emotional Distress" PERFORMER "Into Eternity" INDEX 01 10:31:14 TRACK 05 AUDIO TITLE "Prayers" PERFORMER "In This Moment" INDEX 01 14:26:07 TRACK 06 AUDIO TITLE "Old" PERFORMER "Brand New Sin" INDEX 01 18:13:44 TRACK 07 AUDIO TITLE "Wrong Side" PERFORMER "Strapping Young Lad" INDEX 01 22:23:68 TRACK 08 AUDIO TITLE "When All Is Said and Done" PERFORMER "Napalm Death" INDEX 01 25:58:71 TRACK 09 AUDIO TITLE "Stay the Course" PERFORMER "Heaven Shall Burn" INDEX 01 29:00:65 TRACK 10 AUDIO TITLE "Ground" PERFORMER "Celtic Frost" INDEX 01 32:56:65 TRACK 11 AUDIO TITLE "The Pentagram Burns" PERFORMER "Satryicon" INDEX 01 36:52:00 TRACK 12 AUDIO TITLE "DemiGod" PERFORMER "Behemoth" INDEX 01 42:30:66 TRACK 13 AUDIO TITLE "Blankness" PERFORMER "Fear My Thoughts" INDEX 01 46:04:54 TRACK 14 AUDIO TITLE "Fire Battle in Metal" PERFORMER "Dream Evil" INDEX 01 49:52:72 TRACK 15 AUDIO TITLE "Falling to Pieces" PERFORMER "Firewind" INDEX 01 53:04:27 TRACK 16 AUDIO TITLE "Soul Decision" PERFORMER "Mercenary" INDEX 01 57:07:51 TRACK 17 AUDIO TITLE "Rush" PERFORMER "Poisionblack" INDEX 01 62:10:58 TRACK 18 AUDIO TITLE "Chains of Humanity" PERFORMER "God Forbid" INDEX 01 66:17:08 TRACK 19 AUDIO TITLE "My Apocalypse" PERFORMER "Arch Enemy" INDEX 01 70:20:35

DR Log

foobar2000 1.1.10 / Dynamic Range Meter 1.1.1log date: 2016-04-11 23:26:40
--------------------------------------------------------------------------------Statistics for: ?-DemiGodNumber of samples: 9430344Duration: 3:34--------------------------------------------------------------------------------
Left Right
Peak Value: -0.09 dB --- -0.09 dBAvg RMS: -4.59 dB --- -4.86 dBDR channel: 3.74 dB --- 3.80 dB--------------------------------------------------------------------------------
Official DR Value: DR4
Samplerate: 44100 HzChannels: 2Bits per sample: 16Bitrate: 1081 kbpsCodec: FLAC================================================================================--------------------------------------------------------------------------------Analyzed: Brand New Sin / Metal for the Masses (Disc 1) (1) Celtic Frost / Metal for the Masses (Disc 1) (2)--------------------------------------------------------------------------------
DR Peak RMS Duration Track--------------------------------------------------------------------------------DR4 -0.09 dB -4.36 dB 4:10 ?-OldDR4 -0.09 dB -4.85 dB 3:55 ?-Ground--------------------------------------------------------------------------------
Number of tracks: 2Official DR value: DR4
Samplerate: 44100 HzChannels: 2Bits per sample: 16Bitrate: 1081 kbpsCodec: FLAC================================================================================
--------------------------------------------------------------------------------Analyzed: Diecast / Metal for the Masses (Disc 1) (1) Dream Evil / Metal for the Masses (Disc 1) (2)--------------------------------------------------------------------------------
DR Peak RMS Duration Track--------------------------------------------------------------------------------DR3 -0.09 dB -4.08 dB 3:30 ?-Fade Away (heavy edit)DR4 -0.09 dB -4.96 dB 3:11 ?-Fire Battle in Metal--------------------------------------------------------------------------------
Number of tracks: 2Official DR value: DR4
Samplerate: 44100 HzChannels: 2Bits per sample: 16Bitrate: 1081 kbpsCodec: FLAC================================================================================
--------------------------------------------------------------------------------Analyzed: Fear My Thoughts / Metal for the Masses (Disc 1) (1) Firewind / Metal for the Masses (Disc 1) (2) God Forbid / Metal for the Masses (Disc 1) (3)--------------------------------------------------------------------------------
DR Peak RMS Duration Track--------------------------------------------------------------------------------DR5 -0.09 dB -5.30 dB 3:48 ?-BlanknessDR5 -0.09 dB -5.46 dB 4:03 ?-Falling to PiecesDR4 -0.09 dB -5.25 dB 4:03 ?-Chains of Humanity--------------------------------------------------------------------------------
Number of tracks: 3Official DR value: DR5
Samplerate: 44100 HzChannels: 2Bits per sample: 16Bitrate: 1081 kbpsCodec: FLAC================================================================================
--------------------------------------------------------------------------------Statistics for: ?-Stay the CourseNumber of samples: 10407600Duration: 3:56--------------------------------------------------------------------------------
Left Right
Peak Value: -0.09 dB --- -0.09 dBAvg RMS: -4.81 dB --- -4.57 dBDR channel: 4.12 dB --- 3.92 dB--------------------------------------------------------------------------------
Official DR Value: DR4
Samplerate: 44100 HzChannels: 2Bits per sample: 16Bitrate: 1081 kbpsCodec: FLAC================================================================================--------------------------------------------------------------------------------Statistics for: ?-PrayersNumber of samples: 10032456Duration: 3:47--------------------------------------------------------------------------------
Left Right
Peak Value: -0.09 dB --- -0.09 dBAvg RMS: -5.13 dB --- -5.27 dBDR channel: 4.47 dB --- 4.37 dB--------------------------------------------------------------------------------
Official DR Value: DR4
Samplerate: 44100 HzChannels: 2Bits per sample: 16Bitrate: 1081 kbpsCodec: FLAC================================================================================--------------------------------------------------------------------------------Statistics for: ?-Severe Emotional DistressNumber of samples: 10359384Duration: 3:55--------------------------------------------------------------------------------
Left Right
Peak Value: -0.09 dB --- -0.09 dBAvg RMS: -4.08 dB --- -4.30 dBDR channel: 3.50 dB --- 3.70 dB--------------------------------------------------------------------------------
Official DR Value: DR4
Samplerate: 44100 HzChannels: 2Bits per sample: 16Bitrate: 1081 kbpsCodec: FLAC================================================================================--------------------------------------------------------------------------------Analyzed: Lacuna Coil / Metal for the Masses (Disc 1) (1) Mercenary / Metal for the Masses (Disc 1) (2)--------------------------------------------------------------------------------
DR Peak RMS Duration Track--------------------------------------------------------------------------------DR4 -0.09 dB -4.37 dB 2:54 ?-Closer (Radio Edit)DR4 -0.09 dB -4.15 dB 5:03 ?-Soul Decision--------------------------------------------------------------------------------
Number of tracks: 2Official DR value: DR4
Samplerate: 44100 HzChannels: 2Bits per sample: 16Bitrate: 1081 kbpsCodec: FLAC================================================================================
--------------------------------------------------------------------------------Analyzed: Napalm Death / Metal for the Masses (Disc 1) (1) Poisionblack / Metal for the Masses (Disc 1) (2)--------------------------------------------------------------------------------
DR Peak RMS Duration Track--------------------------------------------------------------------------------DR4 -0.09 dB -4.31 dB 3:02 ?-When All Is Said and DoneDR5 -0.09 dB -5.80 dB 4:06 ?-Rush--------------------------------------------------------------------------------
Number of tracks: 2Official DR value: DR4
Samplerate: 44100 HzChannels: 2Bits per sample: 16Bitrate: 1081 kbpsCodec: FLAC================================================================================
--------------------------------------------------------------------------------Statistics for: ?-The Pentagram BurnsNumber of samples: 14944608Duration: 5:39--------------------------------------------------------------------------------
Left Right
Peak Value: -0.09 dB --- -0.09 dBAvg RMS: -5.56 dB --- -5.63 dBDR channel: 4.87 dB --- 4.96 dB--------------------------------------------------------------------------------
Official DR Value: DR5
Samplerate: 44100 HzChannels: 2Bits per sample: 16Bitrate: 1081 kbpsCodec: FLAC================================================================================--------------------------------------------------------------------------------Statistics for: ?-Wrong SideNumber of samples: 9483264Duration: 3:35--------------------------------------------------------------------------------
Left Right
Peak Value: -0.09 dB --- -0.09 dBAvg RMS: -4.12 dB --- -4.59 dBDR channel: 3.70 dB --- 4.08 dB--------------------------------------------------------------------------------
Official DR Value: DR4
Samplerate: 44100 HzChannels: 2Bits per sample: 16Bitrate: 1081 kbpsCodec: FLAC================================================================================--------------------------------------------------------------------------------Statistics for: ?-The FloodNumber of samples: 10916220Duration: 4:08--------------------------------------------------------------------------------
Left Right
Peak Value: -0.09 dB --- -0.09 dBAvg RMS: -4.70 dB --- -4.73 dBDR channel: 3.79 dB --- 3.73 dB--------------------------------------------------------------------------------
Official DR Value: DR4
Samplerate: 44100 HzChannels: 2Bits per sample: 16Bitrate: 1081 kbpsCodec: FLAC================================================================================
foobar2000 1.1.10 / Dynamic Range Meter 1.1.1log date: 2016-04-11 23:26:39
--------------------------------------------------------------------------------Statistics for: ?-My ApocalypseNumber of samples: 14358372Duration: 5:26--------------------------------------------------------------------------------
Left Right
Peak Value: -0.09 dB --- -0.09 dBAvg RMS: -5.30 dB --- -5.56 dBDR channel: 4.38 dB --- 4.45 dB--------------------------------------------------------------------------------
Official DR Value: DR4
Samplerate: 44100 HzChannels: 2Bits per sample: 16Bitrate: 1081 kbpsCodec: FLAC================================================================================

CD 2 01:17:14

01. Mnemic - Meaningless (3:43)
02. Threat Signal - One Last Breath (3:48 )
03. All Shall Perish - Eradication (3:54)
04. I - The Storm I Ride (3:27)
05. Hammerfall - Natural High (4:16)
06. Scar Symmetry - The Illusionist (4:31)
07. Blind Guardian - Another Stranger Me (4:37)
08. Chrome Division - Seral Killer (3:45)
09. Belphegor - Hell's Ambassador (4:24)
10. Kataklysm - Crippled and Broken (4:33)
11. Therion - Son of the Slaves of Time (5:10)
12. Echoes of Eternity - The Forgotten Goddess (4:45)
13. Meshuggah - Rational Gaze (5:26)
14. Fu Manchu - Hung out to Dry (3:25)
15. Crash Kelly - Ride the Wire (2:48 )
16. Crucified Barbara - Losing the Game (3:53)
17. Fireball Ministry - The Broken (4:45)
18. The Illuminati - Impressions (2:57)
19. Nebula - Ghost Ride (3:00)

Лог создания рипа

Exact Audio Copy V1.0 beta 3 from 29. August 2011
EAC extraction logfile from 8. April 2016, 15:24
Various / Metal for the Masses V (Disc 2)
Used drive : PIONEER BD-RW BDR-TD03 Adapter: 0 ID: 1
Read mode : SecureUtilize accurate stream : YesDefeat audio cache : YesMake use of C2 pointers : No
Read offset correction : 667Overread into Lead-In and Lead-Out : NoFill up missing offset samples with silence : YesDelete leading and trailing silent blocks : NoNull samples used in CRC calculations : YesUsed interface : Native Win32 interface for Win NT & 2000
Used output format : User Defined EncoderSelected bitrate : 768 kBit/sQuality : HighAdd ID3 tag : NoCommand line compressor : C:\Program Files (x86)\Exact Audio Copy\FLAC\FLAC.EXEAdditional command line options : -6 -V -T "ARTIST=%artist%" -T "TITLE=%title%" -T "ALBUM=%albumtitle%" -T "DATE=%year%" -T "TRACKNUMBER=%tracknr%" -T "GENRE=%genre%" -T "COMMENT=%comment%" -T "BAND=%albuminterpret%" -T "ALBUMARTIST=%albuminterpret%" -T "COMPOSER=%composer%" %haslyrics%--tag-from-file=LYRICS="%lyricsfile%"%haslyrics% -T "DISCNUMBER=%cdnumber%" -T "TOTALDISCS=%totalcds%" -T "TOTALTRACKS=%numtracks%" %hascover%--picture="%coverfile%"%hascover% %source% -o %dest%
TOC of the extracted CD
Track | Start | Length | Start sector | End sector --------------------------------------------------------- 1 | 0:00.00 | 3:43.28 | 0 | 16752 2 | 3:43.28 | 3:48.02 | 16753 | 33854 3 | 7:31.30 | 3:54.18 | 33855 | 51422 4 | 11:25.48 | 3:27.03 | 51423 | 66950 5 | 14:52.51 | 4:16.02 | 66951 | 86152 6 | 19:08.53 | 4:31.69 | 86153 | 106546 7 | 23:40.47 | 4:37.22 | 106547 | 127343 8 | 28:17.69 | 3:45.37 | 127344 | 144255 9 | 32:03.31 | 4:24.20 | 144256 | 164075 10 | 36:27.51 | 4:33.24 | 164076 | 184574 11 | 41:01.00 | 5:10.35 | 184575 | 207859 12 | 46:11.35 | 4:45.56 | 207860 | 229290 13 | 50:57.16 | 5:26.07 | 229291 | 253747 14 | 56:23.23 | 3:25.53 | 253748 | 269175 15 | 59:49.01 | 2:48.32 | 269176 | 281807 16 | 62:37.33 | 3:53.06 | 281808 | 299288 17 | 66:30.39 | 4:45.41 | 299289 | 320704 18 | 71:16.05 | 2:57.33 | 320705 | 334012 19 | 74:13.38 | 3:00.10 | 334013 | 347522
Range status and errors
Selected range
Filename C:\Users\Deris\Desktop\kpnemo.eu\MetForMas5\cd2\Various - Metal for the Masses V (Disc 2).wav
Peak level 98.9 % Extraction speed 5.1 X Range quality 100.0 % Test CRC 2BA9EFE3 Copy CRC 2BA9EFE3 Copy OK
No errors occurred
AccurateRip summary
Track 1 accurately ripped (confidence 1) [D713D000] (AR v2)Track 2 accurately ripped (confidence 1) [9013F85A] (AR v2)Track 3 accurately ripped (confidence 1) [8FC1843D] (AR v2)Track 4 accurately ripped (confidence 1) [98E22E87] (AR v2)Track 5 accurately ripped (confidence 1) [B7D4ABBA] (AR v2)Track 6 accurately ripped (confidence 1) [CD990D87] (AR v2)Track 7 accurately ripped (confidence 1) [19D04B6B] (AR v2)Track 8 accurately ripped (confidence 1) [D3FF651C] (AR v2)Track 9 accurately ripped (confidence 1) [5D7BF5FE] (AR v2)Track 10 accurately ripped (confidence 1) [E04B5FE6] (AR v2)Track 11 accurately ripped (confidence 1) [1E528375] (AR v2)Track 12 accurately ripped (confidence 1) [0F960845] (AR v2)Track 13 accurately ripped (confidence 1) [5B721F53] (AR v2)Track 14 accurately ripped (confidence 1) [D78A0ECC] (AR v2)Track 15 accurately ripped (confidence 1) [551644D5] (AR v2)Track 16 accurately ripped (confidence 1) [660DBC5C] (AR v2)Track 17 accurately ripped (confidence 1) [04241016] (AR v2)Track 18 accurately ripped (confidence 1) [F1159A60] (AR v2)Track 19 accurately ripped (confidence 1) [9E8EA8E0] (AR v2)
All tracks accurately ripped
End of status report
---- CUETools DB Plugin V2.1.3
[CTDB TOCID: 3C2YElKFjiGvS7TF71a7dibvsLE-] found, Submit result: 3C2YElKFjiGvS7TF71a7dibvsLE- has been confirmed[b31f74da] (1/1) Accurately ripped
==== Log checksum A387AC9CDBBC3E4E56A265E849CF41F57F1A33927CA80B808265927DB477FA47 ====

Содержание индексной карты (.CUE)

REM GENRE MetalREM DATE 2006REM DISCID 3E121913REM COMMENT "ExactAudioCopy v1.0b3"PERFORMER "Various"TITLE "Metal for the Masses V (Disc 2)"FILE "Various - Metal for the Masses V (Disc 2).flac" WAVE TRACK 01 AUDIO TITLE "Meaningless" PERFORMER "Mnemic" INDEX 01 00:00:00 TRACK 02 AUDIO TITLE "One Last Breath" PERFORMER "Threat Signal" INDEX 01 03:43:28 TRACK 03 AUDIO TITLE "Eradication" PERFORMER "All Shall Perish" INDEX 01 07:31:30 TRACK 04 AUDIO TITLE "The Storm I Ride" PERFORMER "I" INDEX 01 11:25:48 TRACK 05 AUDIO TITLE "Natural High" PERFORMER "Hammerfall" INDEX 01 14:52:51 TRACK 06 AUDIO TITLE "The Illusionist" PERFORMER "Scar Symmetry" INDEX 01 19:08:53 TRACK 07 AUDIO TITLE "Another Stranger Me" PERFORMER "Blind Guardian" INDEX 01 23:40:47 TRACK 08 AUDIO TITLE "Seral Killer" PERFORMER "Chrome Division" INDEX 01 28:17:69 TRACK 09 AUDIO TITLE "Hell's Ambassador" PERFORMER "Belphegor" INDEX 01 32:03:31 TRACK 10 AUDIO TITLE "Crippled and Broken" PERFORMER "Kataklysm" INDEX 01 36:27:51 TRACK 11 AUDIO TITLE "Son of the Slaves of Time" PERFORMER "Therion" INDEX 01 41:01:00 TRACK 12 AUDIO TITLE "The Forgotten Goddess" PERFORMER "Echoes of Eternity" INDEX 01 46:11:35 TRACK 13 AUDIO TITLE "Rational Gaze" PERFORMER "Meshuggah" INDEX 01 50:57:16 TRACK 14 AUDIO TITLE "Hung out to Dry" PERFORMER "Fu Manchu" INDEX 01 56:23:23 TRACK 15 AUDIO TITLE "Ride the Wire" PERFORMER "Crash Kelly" INDEX 01 59:49:01 TRACK 16 AUDIO TITLE "Losing the Game" PERFORMER "Crucified Barbara" INDEX 01 62:37:33 TRACK 17 AUDIO TITLE "The Broken" PERFORMER "Fireball Ministry" INDEX 01 66:30:39 TRACK 18 AUDIO TITLE "Impressions" PERFORMER "The Illuminati" INDEX 01 71:16:05 TRACK 19 AUDIO TITLE "Ghost Ride" PERFORMER "Nebula" INDEX 01 74:13:38

DR Log

foobar2000 1.1.10 / Dynamic Range Meter 1.1.1log date: 2016-04-11 23:28:00
--------------------------------------------------------------------------------Analyzed: All Shall Perish / Metal for the Masses V (Disc 2) (1) Belphegor / Metal for the Masses V (Disc 2) (2)--------------------------------------------------------------------------------
DR Peak RMS Duration Track--------------------------------------------------------------------------------DR3 -0.09 dB -4.10 dB 3:54 ?-EradicationDR4 -0.09 dB -4.50 dB 4:24 ?-Hell's Ambassador--------------------------------------------------------------------------------
Number of tracks: 2Official DR value: DR4
Samplerate: 44100 HzChannels: 2Bits per sample: 16Bitrate: 1067 kbpsCodec: FLAC================================================================================
--------------------------------------------------------------------------------Analyzed: Blind Guardian / Metal for the Masses V (Disc 2) (1) Chrome Division / Metal for the Masses V (Disc 2) (2) Crash Kelly / Metal for the Masses V (Disc 2) (3) Crucified Barbara / Metal for the Masses V (Disc 2) (4)--------------------------------------------------------------------------------
DR Peak RMS Duration Track--------------------------------------------------------------------------------DR4 -0.09 dB -4.91 dB 4:37 ?-Another Stranger MeDR4 -0.09 dB -5.06 dB 3:45 ?-Seral KillerDR5 -0.09 dB -5.33 dB 2:48 ?-Ride the WireDR4 -0.09 dB -4.81 dB 3:53 ?-Losing the Game--------------------------------------------------------------------------------
Number of tracks: 4Official DR value: DR4
Samplerate: 44100 HzChannels: 2Bits per sample: 16Bitrate: 1067 kbpsCodec: FLAC================================================================================
--------------------------------------------------------------------------------Analyzed: Echoes of Eternity / Metal for the Masses V (Disc 2) (1) Fireball Ministry / Metal for the Masses V (Disc 2) (2)--------------------------------------------------------------------------------
DR Peak RMS Duration Track--------------------------------------------------------------------------------DR5 -0.09 dB -5.52 dB 4:46 ?-The Forgotten GoddessDR4 -0.09 dB -4.33 dB 4:46 ?-The Broken--------------------------------------------------------------------------------
Number of tracks: 2Official DR value: DR4
Samplerate: 44100 HzChannels: 2Bits per sample: 16Bitrate: 1067 kbpsCodec: FLAC================================================================================
--------------------------------------------------------------------------------Statistics for: ?-Hung out to DryNumber of samples: 9071664Duration: 3:26--------------------------------------------------------------------------------
Left Right
Peak Value: -0.09 dB --- -0.09 dBAvg RMS: -5.88 dB --- -4.83 dBDR channel: 4.95 dB --- 4.01 dB--------------------------------------------------------------------------------
Official DR Value: DR4
Samplerate: 44100 HzChannels: 2Bits per sample: 16Bitrate: 1067 kbpsCodec: FLAC================================================================================--------------------------------------------------------------------------------Statistics for: ?-Natural HighNumber of samples: 11290776Duration: 4:16--------------------------------------------------------------------------------
Left Right
Peak Value: -0.09 dB --- -0.09 dBAvg RMS: -5.15 dB --- -4.82 dBDR channel: 4.31 dB --- 4.18 dB--------------------------------------------------------------------------------
Official DR Value: DR4
Samplerate: 44100 HzChannels: 2Bits per sample: 16Bitrate: 1067 kbpsCodec: FLAC================================================================================--------------------------------------------------------------------------------Analyzed: I / Metal for the Masses V (Disc 2) (1) Kataklysm / Metal for the Masses V (Disc 2) (2) Meshuggah / Metal for the Masses V (Disc 2) (3)--------------------------------------------------------------------------------
DR Peak RMS Duration Track--------------------------------------------------------------------------------DR4 -0.09 dB -4.86 dB 3:27 ?-The Storm I RideDR5 -0.09 dB -5.28 dB 4:33 ?-Crippled and BrokenDR5 -0.09 dB -5.91 dB 5:26 ?-Rational Gaze--------------------------------------------------------------------------------
Number of tracks: 3Official DR value: DR5
Samplerate: 44100 HzChannels: 2Bits per sample: 16Bitrate: 1067 kbpsCodec: FLAC================================================================================
--------------------------------------------------------------------------------Analyzed: Mnemic / Metal for the Masses V (Disc 2) (1) Nebula / Metal for the Masses V (Disc 2) (2)--------------------------------------------------------------------------------
DR Peak RMS Duration Track--------------------------------------------------------------------------------DR3 -0.09 dB -4.02 dB 3:43 ?-MeaninglessDR4 -0.09 dB -5.28 dB 3:00 ?-Ghost Ride--------------------------------------------------------------------------------
Number of tracks: 2Official DR value: DR4
Samplerate: 44100 HzChannels: 2Bits per sample: 16Bitrate: 1067 kbpsCodec: FLAC================================================================================
--------------------------------------------------------------------------------Analyzed: Scar Symmetry / Metal for the Masses V (Disc 2) (1) The Illuminati / Metal for the Masses V (Disc 2) (2)--------------------------------------------------------------------------------
DR Peak RMS Duration Track--------------------------------------------------------------------------------DR4 -0.09 dB -4.37 dB 4:32 ?-The IllusionistDR4 -0.09 dB -5.51 dB 2:57 ?-Impressions--------------------------------------------------------------------------------
Number of tracks: 2Official DR value: DR4
Samplerate: 44100 HzChannels: 2Bits per sample: 16Bitrate: 1067 kbpsCodec: FLAC================================================================================
--------------------------------------------------------------------------------Statistics for: ?-Son of the Slaves of TimeNumber of samples: 13691580Duration: 5:10--------------------------------------------------------------------------------
Left Right
Peak Value: -0.09 dB --- -0.09 dBAvg RMS: -5.23 dB --- -5.12 dBDR channel: 4.20 dB --- 4.15 dB--------------------------------------------------------------------------------
Official DR Value: DR4
Samplerate: 44100 HzChannels: 2Bits per sample: 16Bitrate: 1067 kbpsCodec: FLAC================================================================================--------------------------------------------------------------------------------Statistics for: ?-One Last BreathNumber of samples: 10055976Duration: 3:48--------------------------------------------------------------------------------
Left Right
Peak Value: -0.09 dB --- -0.09 dBAvg RMS: -4.63 dB --- -4.66 dBDR channel: 4.15 dB --- 4.03 dB--------------------------------------------------------------------------------
Official DR Value: DR4
Samplerate: 44100 HzChannels: 2Bits per sample: 16Bitrate: 1067 kbpsCodec: FLAC================================================================================


[torrentc.info]_torrent-5207136.torrent
Торрент: Зарегистрирован ·  [ 2017-02-16 09:12 ] ·  7d8dc774466098662e183acdb5d15f39c852d9a7

16 KB

Статус: проверено
Скачан: 0 раз
Размер: 1.36 GB
Оценка: 
(Голосов: 0)
Сказали спасибо: 0  Спасибо
Похожие темы
[Профиль]    [ЛС]
Показать сообщения:    
Ответить на тему

Текущее время: Сегодня 13:31

Часовой пояс: GMT + 7



Вы не можете начинать темы
Вы не можете отвечать на сообщения
Вы не можете редактировать свои сообщения
Вы не можете удалять свои сообщения
Вы не можете голосовать в опросах
Вы не можете прикреплять файлы к сообщениям
Вы можете скачивать файлы