Тарантул (Владимир Латышев) [1982, драма, фильм-спектакль, TVRip]

Ответить на тему
Статистика раздачи [Обновить пиров]
Размер:  1.37 GB   |    Зарегистрирован:  9 месяцев 8 дней   |    Скачан:  3 раза

Полного источника не было: 4 месяца 10 дней

 
   
 
 
 
Автор Сообщение

torrentc.info

Создавать темы 10-Дек-2017 19:36

[Цитировать]

Тарантул
Жанр: драма
Год выхода: 1982
Продолжительность: 01:44:59 (01:07:35 + 00:37:24)
Режиссёр: Владимир Латышев
В ролях:
Лена - Ирина Богданова
Миша - Сергей Власов
Иван Васильевич - Леонид Неведомский
Трифонов - Михаил Матвеев
Каратыгин - Юрий Лазарев
Бураков - Владимир Еремин
Маслюков - Александр Алексеев
Валя - Наталия Дмитриева
Пахомов - Виталий Гордиенко
Анна Захаровна - Людмила Петухова
Аннушка - Клавдия Фадеева
Рецептар - Валерия Киселева
Профессор - Николай Карамышев
Степан - Юрий Оленников
Тарантул - Владимир Головин
Казанков - Николай Лавров
Описание: Герман Матвеев написал трилогию "Тарантул".
По первым двум частям - "Зелёные цепочки" (1945) и "Тайная схватка"(1948), был снят фильм "Зелёные цепочки".
По третьей части трилогии - "Тарантул", был снят данный фильм-спектакль.
Памяти юных защитников Ленинграда посвящается.
1943 год. До полного снятия блокады Ленинграда оставалось 73 дня.
Ленинградские подростки - Миша Алексеев и его приятели - помогли советским контрразведчикам выловить группу фашистских агентов, действовавших в Ленинграде во время войны.
:
Семпл: http://sendfile.su/1381980
Качество видео: TVRip
Формат файла: AVI
Видео: 640x480 (1.33:1), 25 fps, XviD MPEG-4 ~1724 kbps avg, 0.22 bit/pixel
Аудио: 44.100 kHz, MPEG Layer 3, 2 ch, ~128.00 kbps avg

MediaInfo

1 часть
General
Complete name : Tarantul.1982.TVRip.fenixclub\Tarantul.1.avi
Format : AVI
Format/Info : Audio Video Interleave
File size : 900 MiB
Duration : 1h 7mn
Overall bit rate : 1 862 Kbps
Writing application : VirtualDubModRus 1.5.10.2 (build 2542/release)
Writing library : VirtualDub build 32842/release
Video
ID : 0
Format : MPEG-4 Visual
Format profile : Advanced Simple@L5
Format settings, BVOP : 2
Format settings, QPel : No
Format settings, GMC : No warppoints
Format settings, Matrix : Default (H.263)
Codec ID : XVID
Codec ID/Hint : XviD
Duration : 1h 7mn
Bit rate : 1 724 Kbps
Width : 640 pixels
Height : 480 pixels
Display aspect ratio : 4:3
Frame rate : 25.000 fps
Color space : YUV
Chroma subsampling : 4:2:0
Bit depth : 8 bits
Scan type : Progressive
Compression mode : Lossy
Bits/(Pixel*Frame) : 0.225
Stream size : 834 MiB (93%)
Writing library : XviD 73
Audio
ID : 1
Format : MPEG Audio
Format version : Version 1
Format profile : Layer 3
Mode : Joint stereo
Mode extension : MS Stereo
Codec ID : 55
Codec ID/Hint : MP3
Duration : 1h 7mn
Bit rate mode : Constant
Bit rate : 128 Kbps
Channel(s) : 2 channels
Sampling rate : 44.1 KHz
Compression mode : Lossy
Stream size : 61.9 MiB (7%)
Alignment : Split accross interleaves
Interleave, duration : 40 ms (1.00 video frame)
Interleave, preload duratio : 500 ms
2 часть
General
Complete name : Tarantul.1982.TVRip.fenixclub\Tarantul.2.avi
Format : AVI
Format/Info : Audio Video Interleave
File size : 498 MiB
Duration : 37mn 24s
Overall bit rate : 1 862 Kbps
Writing application : VirtualDubModRus 1.5.10.2 (build 2542/release)
Writing library : VirtualDub build 32842/release
Video
ID : 0
Format : MPEG-4 Visual
Format profile : Advanced Simple@L5
Format settings, BVOP : 2
Format settings, QPel : No
Format settings, GMC : No warppoints
Format settings, Matrix : Default (H.263)
Codec ID : XVID
Codec ID/Hint : XviD
Duration : 37mn 24s
Bit rate : 1 724 Kbps
Width : 640 pixels
Height : 480 pixels
Display aspect ratio : 4:3
Frame rate : 25.000 fps
Color space : YUV
Chroma subsampling : 4:2:0
Bit depth : 8 bits
Scan type : Progressive
Compression mode : Lossy
Bits/(Pixel*Frame) : 0.224
Stream size : 461 MiB (93%)
Writing library : XviD 73
Audio
ID : 1
Format : MPEG Audio
Format version : Version 1
Format profile : Layer 3
Mode : Joint stereo
Mode extension : MS Stereo
Codec ID : 55
Codec ID/Hint : MP3
Duration : 37mn 24s
Bit rate mode : Constant
Bit rate : 128 Kbps
Channel(s) : 2 channels
Sampling rate : 44.1 KHz
Compression mode : Lossy
Stream size : 34.2 MiB (7%)
Alignment : Split accross interleaves
Interleave, duration : 40 ms (1.00 video frame)
Interleave, preload duratio : 500 ms
Writing library : LAME3.98.2

Скриншоты




[torrentc.info]_t_5488542.torrent
Торрент: Зарегистрирован ·  [ 2017-12-10 19:36 ] ·  dd8bb0ad78f5d7ff235f3e7519adfa56e0c04219

14 KB

Статус: проверено
Скачан: 3 раз
Размер: 1.37 GB
Оценка: 
(Голосов: 0)
Сказали спасибо: 1  Спасибо   (список)
Похожие темы
[Профиль]    [ЛС]
Показать сообщения:    
Ответить на тему

Текущее время: Сегодня 08:59

Часовой пояс: GMT + 7



Вы не можете начинать темы
Вы не можете отвечать на сообщения
Вы не можете редактировать свои сообщения
Вы не можете удалять свои сообщения
Вы не можете голосовать в опросах
Вы не можете прикреплять файлы к сообщениям
Вы можете скачивать файлы