[BR][OF] King Crimson - In The Wake Of Poseidon (Sailors\' Tales) (40 Anniversary Edition) - 2017 (Rock, Prog Rock)

Ответить на тему
Статистика раздачи [Обновить пиров]
Размер:  29.39 GB   |    Зарегистрирован:  9 месяцев 11 дней   |    Скачан:  0 раз

Полного источника не было: Никогда

 
   
 
 
 
Автор Сообщение

torrentc.info

Создавать темы 07-Дек-2017 21:42

[Цитировать]

King Crimson / In The Wake Of Poseidon (Sailors' Tales)
Формат файла записи/Источник записи: [BR][OF]
Наличие водяных знаков: Нет
Издание: 40 Anniversary Edition
Год издания/переиздания диска: 2017
Жанр: Rock, Prog Rock
Издатель (лейбл): Discipline Global Mobile, Panegyric, Inner Knot
Продолжительность: 0:56:43+1:11:45+0:48:04+0:44:23+0:41:08
Наличие сканов в содержимом раздачи: Да (сканы)
Источник (релизер): ALLexxess
Формат файла: BDMV
Тип рипа: folder
Разрядность: 24/96
Формат файла: LPCM, DTS-HD MA
Количество каналов: 2.0, 5.1

Треклист

In The Wake Of Poseidon 24/96 Original Stereo / New Stereo / 5.1
01. Peace - A Beginning
02. Pictures Of A City
03. Cadence And Cascade
04. In The Wake Of Poseidon
05. Peace - A Theme
06. Cat Food
07. The Devil's Triangle (Part I) °
08. The Devil's Triangle (Part II) °
09. The Devil's Triangle (Part III) °
10 Peace - An End
° original stereo / upmixed 5.1 only
Additional Material 24/96 Stereo / 5.1
11. Groon (2010 Mix)
12. The Devil's Triangle (Mixed From Surviving Multitrack Elements By Steven Wilson)
In The Wake Of Poseidon An Alternative Album Selection 24/96 Stereo
01. Peace - A Beginning (Live: Japan, 2015 From Japanese Heroes EP)
02. A Man, A City (Live: Fillmore West, December 15th,1969 From Epitaph)
03. Cadence And Cascade (Guide Vocal: Greg Lake From 40th Anniversary DVD-A)
04. In The Wake Of Poseidon (Unedited Master, Rough Mix)
05. Peace - A Theme (Robert Fripp, Rehearsal)
06. Cat Food (Mono Single Mix)
07. The Devil's Triangle (Part I) (Early Recording, Rough Mix)
08. The Devil's Triangle (Part II) (Mars, Part II,4 Track Recording)
09. The Devil's Triangle (Part III) (Mixed From Surviving Multitrack Elements By Steven Wilson)
10. Peace - An End (Alternate Mix From 40th Anniversary DVD-A)
Additional Material 24/96 Stereo
01. Cadence And Cascade (Original Studio Recording, Vocal Overdub: Jakko Jakszyk)
02. Groon (Single B Side)
03. Cat Food (Single A Side)
04. In The Wake of Poseidon (Instrumental Mix)
05. The Devil's Triangle (Mars, Pt III Piano Prominent)
06. Cadence And Cascade (Unedited Master)
07. Cat Food (Rehearsal Take)
08. Groon (Take 1)
09 The Devil's Triangle (Rehearsal Take, Wessex Studios)
10. Cadence And Cascade (Original Studio Recording,Vocal Overdub: Adrian Belew)
11. Groon (Take 4)
12. Groon (Take 5)
13. Groon (Take 6)
14. The Devil's Triangle (Mars, Part III, 4 Track Recording)
15. Cadence And Cascade (Rehearsal Take, Wessex Studios)
16. Groon (Take 15)
Needledrops ILPS 9127 (In The Wake Of Poseidon) 24/96 Stereo
01. Peace - A Beginning
02. Pictures Of A City
03. Cadence And Cascade
04. In The Wake Of Poseidon
05. Peace - A Theme
06. Cat Food
07. The Devil's Triangle (Part I)
08. The Devil's Triangle (Part II)
09. The Devil's Triangle (Part III)
10. Peace - An End
WIP 6080 A/B (Cat Food)
11. Cat Food (Single A Side)
12. Groon (Single B Side)

BDInfo

Disc Title: King Crimson In The Wake Of PoseidonDisc Size: 29,068,490,752 bytesProtection: AACS(v63)BD-Java: YesBDInfo: 0.5.8.1 (compatible layout created by DVDFab 9.3.1.2)
Notes:
BDINFO HOME: Cinema Squid (original standalone tool) http://www.cinemasquid.com/blu-ray/tools/bdinfo DVDFab http://www.dvdfab.cn/bdinfo.htm
INCLUDES FORUMS REPORT FOR: AVS Forum Blu-ray Audio and Video Specifications Thread http://www.avsforum.com/avs-vb/showthread.php?t=1155731
********************PLAYLIST: 00002.MPLS********************
Total   Video
Title                                                           Codec   Length   Movie Size      Disc Size       Bitrate Bitrate Main Audio Track                          Secondary Audio Track
-----                                                           ------  -------  --------------  --------------  ------- ------- ------------------                        ---------------------
00002.MPLS                                                      AVC     0:56:43  13,236,492,288  29,068,490,752  31.11   5.00    LPCM 2.0                                  DTS-HD Master 5.1DTS-HD Master 5.1
DISC INFO:
Disc Title:     King Crimson In The Wake Of Poseidon
Disc Size:      29,068,490,752 bytes
Protection:     AACS(v63)
BD-Java:        Yes
BDInfo:         0.5.8.1 (compatible layout created by DVDFab 9.3.1.2)
PLAYLIST REPORT:
Name:                   00002.MPLS
Length:                 0:56:43.691 (h:m:s.ms)
Size:                   13,236,492,288 bytes
Total Bitrate:          31.11 Mbps
VIDEO:
Codec                   Bitrate             Description
-----                   -------             -----------
MPEG-4 AVC Video        5000 kbps           1080p / 23.976 fps / 16:9 / High Profile 4.1
AUDIO:
Codec                           Language        Bitrate         Description
-----                           --------        -------         -----------
LPCM Audio                      English         4608 kbps       2.0 / 96 kHz / 4608 kbps / 24-bit
DTS-HD Master Audio             English         5673 kbps       5.1 / 96 kHz / 5673 kbps / 24-bit (DTS Core: 5.1 / 48 kHz / 1509 kbps / 24-bit)
LPCM Audio                      English         13824 kbps      5.1 / 96 kHz / 13824 kbps / 24-bit
FILES:
Name            Time In         Length          Size            Total Bitrate
----            -------         ------          ----            -------------
00002.M2TS      0:00:00.000     0:56:43.691     13,236,492,288  31,110 kbps
CHAPTERS:
Number          Time In         Length          Avg Video Rate  Max 1-Sec Rate  Max 1-Sec Time  Max 5-Sec Rate  Max 5-Sec Time  Max 10Sec Rate  Max 10Sec Time  Avg Frame Size  Max Frame Size  Max Frame Time
------          -------         ------          --------------  --------------  --------------  --------------  --------------  --------------  --------------  --------------  --------------  --------------
1               0:00:00.000     0:00:53.762     4,986 kbps      17,726 kbps     0:00:04.003     7,733 kbps      0:00:04.129     6,440 kbps      0:00:04.129     25,975 bytes    492,057 bytes   0:00:40.039
2               0:00:53.762     0:08:01.522     5,006 kbps      6,157 kbps      0:08:37.225     5,293 kbps      0:01:32.801     5,207 kbps      0:01:27.962     26,100 bytes    509,327 bytes   0:06:04.072
3               0:08:55.284     0:04:37.610     5,047 kbps      7,357 kbps      0:13:31.894     5,587 kbps      0:13:27.890     5,322 kbps      0:09:29.318     26,315 bytes    528,395 bytes   0:09:04.293
4               0:13:32.895     0:08:25.129     5,020 kbps      7,961 kbps      0:21:57.024     5,510 kbps      0:21:53.020     5,256 kbps      0:14:28.242     26,176 bytes    494,830 bytes   0:18:04.166
5               0:21:58.025     0:01:15.950     4,927 kbps      7,723 kbps      0:23:12.974     5,472 kbps      0:23:08.970     5,211 kbps      0:23:03.965     25,689 bytes    504,586 bytes   0:22:05.032
6               0:23:13.975     0:04:54.252     4,934 kbps      7,972 kbps      0:28:07.227     5,574 kbps      0:28:03.223     5,205 kbps      0:27:58.218     25,728 bytes    515,630 bytes   0:27:05.206
7               0:28:08.228     0:03:46.392     5,067 kbps      6,863 kbps      0:31:53.620     5,369 kbps      0:28:34.254     5,289 kbps      0:28:29.416     26,418 bytes    512,836 bytes   0:29:05.285
8               0:31:54.621     0:03:56.945     5,042 kbps      8,103 kbps      0:35:50.565     5,531 kbps      0:35:46.561     5,241 kbps      0:35:41.556     26,287 bytes    525,171 bytes   0:32:05.632
9               0:35:51.566     0:03:48.353     5,007 kbps      7,354 kbps      0:39:38.918     5,594 kbps      0:39:34.914     5,362 kbps      0:39:29.909     26,105 bytes    513,890 bytes   0:39:05.760
10              0:39:39.919     0:01:54.072     4,904 kbps      7,747 kbps      0:41:32.990     5,581 kbps      0:41:28.986     5,304 kbps      0:41:23.981     25,569 bytes    495,981 bytes   0:40:05.945
11              0:41:33.991     0:03:36.507     4,942 kbps      6,965 kbps      0:45:09.498     5,423 kbps      0:45:05.494     5,169 kbps      0:45:00.489     25,767 bytes    492,494 bytes   0:45:06.203
12              0:45:10.499     0:11:33.192     4,993 kbps      7,968 kbps      0:48:56.600     5,544 kbps      0:48:55.349     5,256 kbps      0:48:56.475     26,035 bytes    539,963 bytes   0:55:06.886
STREAM DIAGNOSTICS:
File            PID             Type            Codec           Language                Seconds                 Bitrate                 Bytes           Packets
----            ---             ----            -----           --------                --------------          --------------          -------------   -----
00002.M2TS      4113 (0x1011)   0x1B            AVC                                     3403.65                 5000.17                 2,127,351,686   11,610,622
00002.M2TS      4352 (0x1100)   0x80            LPCM            eng (English)           3403.71                 4608                    1,963,262,812   10,891,888
00002.M2TS      4353 (0x1101)   0x86            DTS-HD MA       eng (English)           3403.71                 5672.91                 2,413,618,796   13,647,823
00002.M2TS      4354 (0x1102)   0x80            LPCM            eng (English)           3403.71                 13824                   5,884,342,492   32,675,664
QUICK SUMMARY:
Disc Title: King Crimson In The Wake Of PoseidonDisc Size: 29,068,490,752 bytesProtection: AACS(v63)BD-Java: YesPlaylist: 00002.MPLSSize: 13,236,492,288 bytesLength: 0:56:43.691Total Bitrate: 31.11 MbpsVideo: MPEG-4 AVC Video / 5000 kbps / 1080p / 23.976 fps / 16:9 / High Profile 4.1Audio: English / LPCM Audio / 2.0 / 96 kHz / 4608 kbps / 24-bitAudio: English / DTS-HD Master Audio / 5.1 / 96 kHz / 5673 kbps / 24-bit (DTS Core: 5.1 / 48 kHz / 1509 kbps / 24-bit)Audio: English / LPCM Audio / 5.1 / 96 kHz / 13824 kbps / 24-bit
********************PLAYLIST: 00005.MPLS********************
Total   Video
Title                                                           Codec   Length   Movie Size      Disc Size       Bitrate Bitrate Main Audio Track                          Secondary Audio Track
-----                                                           ------  -------  --------------  --------------  ------- ------- ------------------                        ---------------------
00005.MPLS                                                      AVC     1:11:45  5,492,594,688   29,068,490,752  10.21   5.00    LPCM 2.0
DISC INFO:
Disc Title:     King Crimson In The Wake Of Poseidon
Disc Size:      29,068,490,752 bytes
Protection:     AACS(v63)
BD-Java:        Yes
BDInfo:         0.5.8.1 (compatible layout created by DVDFab 9.3.1.2)
PLAYLIST REPORT:
Name:                   00005.MPLS
Length:                 1:11:45.342 (h:m:s.ms)
Size:                   5,492,594,688 bytes
Total Bitrate:          10.21 Mbps
VIDEO:
Codec                   Bitrate             Description
-----                   -------             -----------
MPEG-4 AVC Video        5000 kbps           1080p / 23.976 fps / 16:9 / High Profile 4.1
AUDIO:
Codec                           Language        Bitrate         Description
-----                           --------        -------         -----------
LPCM Audio                      English         4608 kbps       2.0 / 96 kHz / 4608 kbps / 24-bit
FILES:
Name            Time In         Length          Size            Total Bitrate
----            -------         ------          ----            -------------
00005.M2TS      0:00:00.000     1:11:45.342     5,492,594,688   10,206 kbps
CHAPTERS:
Number          Time In         Length          Avg Video Rate  Max 1-Sec Rate  Max 1-Sec Time  Max 5-Sec Rate  Max 5-Sec Time  Max 10Sec Rate  Max 10Sec Time  Avg Frame Size  Max Frame Size  Max Frame Time
------          -------         ------          --------------  --------------  --------------  --------------  --------------  --------------  --------------  --------------  --------------  --------------
1               0:00:00.000     0:05:37.337     5,036 kbps      10,714 kbps     0:00:03.086     6,333 kbps      0:00:03.086     5,828 kbps      0:00:03.086     26,253 bytes    498,378 bytes   0:03:02.307
2               0:05:37.337     0:03:34.172     4,855 kbps      7,635 kbps      0:09:10.508     5,509 kbps      0:09:06.504     5,232 kbps      0:09:01.499     25,314 bytes    447,726 bytes   0:08:38.518
3               0:09:11.509     0:02:46.040     4,969 kbps      8,304 kbps      0:11:56.549     5,522 kbps      0:11:52.545     5,227 kbps      0:11:47.540     25,907 bytes    495,270 bytes   0:11:57.550
4               0:11:57.550     0:04:02.784     5,156 kbps      7,830 kbps      0:15:59.333     5,570 kbps      0:15:55.329     5,440 kbps      0:12:27.079     26,883 bytes    502,175 bytes   0:12:03.556
5               0:16:00.334     0:03:32.462     5,001 kbps      6,965 kbps      0:19:31.795     5,476 kbps      0:19:27.791     5,261 kbps      0:19:22.786     26,075 bytes    510,142 bytes   0:16:03.337
6               0:19:32.796     0:05:43.676     5,022 kbps      6,826 kbps      0:25:15.472     5,358 kbps      0:25:11.468     5,181 kbps      0:20:27.851     26,185 bytes    527,728 bytes   0:23:04.007
7               0:25:16.473     0:05:33.916     4,886 kbps      7,558 kbps      0:30:49.556     5,445 kbps      0:30:45.552     5,155 kbps      0:30:40.547     25,475 bytes    450,806 bytes   0:30:39.796
8               0:30:50.390     0:03:28.374     4,955 kbps      7,297 kbps      0:34:17.764     5,390 kbps      0:34:13.760     5,250 kbps      0:32:28.488     25,841 bytes    511,692 bytes   0:32:04.464
9               0:34:18.765     0:09:50.381     5,060 kbps      7,781 kbps      0:44:08.145     5,689 kbps      0:44:04.141     5,482 kbps      0:34:29.776     26,380 bytes    523,850 bytes   0:35:04.811
10              0:44:09.146     0:04:09.499     5,026 kbps      6,628 kbps      0:48:17.644     5,308 kbps      0:46:34.291     5,227 kbps      0:45:29.393     26,203 bytes    505,609 bytes   0:46:05.262
11              0:48:18.645     0:02:52.547     4,850 kbps      6,890 kbps      0:51:10.192     5,405 kbps      0:51:06.188     5,147 kbps      0:51:01.183     25,287 bytes    465,675 bytes   0:51:05.812
12              0:51:11.193     0:03:43.681     4,961 kbps      7,260 kbps      0:54:53.873     5,355 kbps      0:54:49.869     5,146 kbps      0:53:29.539     25,868 bytes    452,793 bytes   0:54:05.367
13              0:54:54.874     0:03:48.019     4,991 kbps      8,171 kbps      0:58:41.893     5,734 kbps      0:58:37.889     5,405 kbps      0:58:32.884     26,025 bytes    503,728 bytes   0:58:42.894
14              0:58:42.894     0:03:35.214     5,115 kbps      6,598 kbps      0:59:38.950     5,593 kbps      0:59:34.946     5,456 kbps      0:59:29.941     26,671 bytes    522,261 bytes   0:59:05.917
15              1:02:18.109     0:05:31.205     5,002 kbps      8,013 kbps      1:07:48.481     5,556 kbps      1:07:44.477     5,314 kbps      1:07:39.472     26,076 bytes    509,469 bytes   1:07:06.397
16              1:07:49.315     0:03:56.027     4,975 kbps      11,770 kbps     1:11:44.133     7,000 kbps      1:11:40.045     6,055 kbps      1:11:35.040     25,937 bytes    467,475 bytes   1:11:06.512
STREAM DIAGNOSTICS:
File            PID             Type            Codec           Language                Seconds                 Bitrate                 Bytes           Packets
----            ---             ----            -----           --------                --------------          --------------          -------------   -----
00005.M2TS      4113 (0x1011)   0x1B            AVC                                     4305.30                 5000.14                 2,690,889,286   14,685,888
00005.M2TS      4352 (0x1100)   0x80            LPCM            eng (English)           4305.35                 4608                    2,483,328,764   13,777,136
QUICK SUMMARY:
Disc Title: King Crimson In The Wake Of PoseidonDisc Size: 29,068,490,752 bytesProtection: AACS(v63)BD-Java: YesPlaylist: 00005.MPLSSize: 5,492,594,688 bytesLength: 1:11:45.342Total Bitrate: 10.21 MbpsVideo: MPEG-4 AVC Video / 5000 kbps / 1080p / 23.976 fps / 16:9 / High Profile 4.1Audio: English / LPCM Audio / 2.0 / 96 kHz / 4608 kbps / 24-bit
********************PLAYLIST: 00006.MPLS********************
Total   Video
Title                                                           Codec   Length   Movie Size      Disc Size       Bitrate Bitrate Main Audio Track                          Secondary Audio Track
-----                                                           ------  -------  --------------  --------------  ------- ------- ------------------                        ---------------------
00006.MPLS                                                      AVC     0:48:04  3,680,649,216   29,068,490,752  10.21   5.00    LPCM 2.0
DISC INFO:
Disc Title:     King Crimson In The Wake Of Poseidon
Disc Size:      29,068,490,752 bytes
Protection:     AACS(v63)
BD-Java:        Yes
BDInfo:         0.5.8.1 (compatible layout created by DVDFab 9.3.1.2)
PLAYLIST REPORT:
Name:                   00006.MPLS
Length:                 0:48:04.882 (h:m:s.ms)
Size:                   3,680,649,216 bytes
Total Bitrate:          10.21 Mbps
VIDEO:
Codec                   Bitrate             Description
-----                   -------             -----------
MPEG-4 AVC Video        5000 kbps           1080p / 23.976 fps / 16:9 / High Profile 4.1
AUDIO:
Codec                           Language        Bitrate         Description
-----                           --------        -------         -----------
LPCM Audio                      English         4608 kbps       2.0 / 96 kHz / 4608 kbps / 24-bit
FILES:
Name            Time In         Length          Size            Total Bitrate
----            -------         ------          ----            -------------
00006.M2TS      0:00:00.000     0:48:04.882     3,680,649,216   10,206 kbps
CHAPTERS:
Number          Time In         Length          Avg Video Rate  Max 1-Sec Rate  Max 1-Sec Time  Max 5-Sec Rate  Max 5-Sec Time  Max 10Sec Rate  Max 10Sec Time  Avg Frame Size  Max Frame Size  Max Frame Time
------          -------         ------          --------------  --------------  --------------  --------------  --------------  --------------  --------------  --------------  --------------  --------------
1               0:00:00.000     0:00:55.680     5,109 kbps      17,322 kbps     0:00:03.920     9,046 kbps      0:00:03.169     7,055 kbps      0:00:03.169     26,620 bytes    476,727 bytes   0:00:55.680
2               0:00:55.680     0:08:00.062     4,987 kbps      7,893 kbps      0:08:54.742     5,502 kbps      0:08:50.738     5,223 kbps      0:08:45.733     26,001 bytes    482,328 bytes   0:03:39.844
3               0:08:55.743     0:04:37.068     5,021 kbps      7,897 kbps      0:13:31.977     5,738 kbps      0:13:27.973     5,435 kbps      0:13:22.968     26,175 bytes    492,800 bytes   0:09:05.753
4               0:13:32.812     0:08:28.591     5,014 kbps      6,417 kbps      0:22:00.402     5,304 kbps      0:21:35.293     5,192 kbps      0:21:30.289     26,144 bytes    487,174 bytes   0:16:05.964
5               0:22:01.403     0:01:16.993     4,970 kbps      7,857 kbps      0:23:17.396     5,500 kbps      0:23:13.391     5,238 kbps      0:23:08.387     25,912 bytes    482,033 bytes   0:22:44.446
6               0:23:18.397     0:04:56.254     4,970 kbps      8,005 kbps      0:28:13.650     5,576 kbps      0:28:09.646     5,288 kbps      0:28:04.641     25,911 bytes    482,405 bytes   0:24:06.445
7               0:28:14.651     0:03:49.479     5,013 kbps      7,164 kbps      0:32:03.129     5,376 kbps      0:28:35.672     5,264 kbps      0:28:30.667     26,145 bytes    487,619 bytes   0:30:40.797
8               0:32:04.130     0:03:57.028     5,007 kbps      8,100 kbps      0:36:00.158     5,509 kbps      0:35:56.154     5,212 kbps      0:35:51.149     26,108 bytes    494,725 bytes   0:32:07.133
9               0:36:01.159     0:03:46.226     5,004 kbps      6,128 kbps      0:37:40.258     5,291 kbps      0:37:36.254     5,177 kbps      0:37:31.249     26,089 bytes    490,607 bytes   0:36:07.165
10              0:39:47.385     0:01:55.990     4,969 kbps      8,065 kbps      0:41:42.374     5,682 kbps      0:41:38.370     5,353 kbps      0:41:33.365     25,909 bytes    487,028 bytes   0:41:07.465
11              0:41:43.375     0:02:47.458     4,966 kbps      7,032 kbps      0:44:29.833     5,494 kbps      0:44:25.829     5,257 kbps      0:44:20.824     25,893 bytes    482,177 bytes   0:43:07.459
12              0:44:30.834     0:03:34.047     5,012 kbps      12,712 kbps     0:48:03.005     7,012 kbps      0:47:59.293     5,936 kbps      0:47:54.288     26,121 bytes    489,183 bytes   0:45:07.871
STREAM DIAGNOSTICS:
File            PID             Type            Codec           Language                Seconds                 Bitrate                 Bytes           Packets
----            ---             ----            -----           --------                --------------          --------------          -------------   -----
00006.M2TS      4113 (0x1011)   0x1B            AVC                                     2884.84                 5000.49                 1,803,202,429   9,841,679
00006.M2TS      4352 (0x1100)   0x80            LPCM            eng (English)           2884.91                 4608                    1,664,016,088   9,231,712
QUICK SUMMARY:
Disc Title: King Crimson In The Wake Of PoseidonDisc Size: 29,068,490,752 bytesProtection: AACS(v63)BD-Java: YesPlaylist: 00006.MPLSSize: 3,680,649,216 bytesLength: 0:48:04.882Total Bitrate: 10.21 MbpsVideo: MPEG-4 AVC Video / 5000 kbps / 1080p / 23.976 fps / 16:9 / High Profile 4.1Audio: English / LPCM Audio / 2.0 / 96 kHz / 4608 kbps / 24-bit
********************PLAYLIST: 00004.MPLS********************
Total   Video
Title                                                           Codec   Length   Movie Size      Disc Size       Bitrate Bitrate Main Audio Track                          Secondary Audio Track
-----                                                           ------  -------  --------------  --------------  ------- ------- ------------------                        ---------------------
00004.MPLS                                                      AVC     0:44:23  3,402,934,272   29,068,490,752  10.22   5.00    LPCM 2.0
DISC INFO:
Disc Title:     King Crimson In The Wake Of Poseidon
Disc Size:      29,068,490,752 bytes
Protection:     AACS(v63)
BD-Java:        Yes
BDInfo:         0.5.8.1 (compatible layout created by DVDFab 9.3.1.2)
PLAYLIST REPORT:
Name:                   00004.MPLS
Length:                 0:44:23.452 (h:m:s.ms)
Size:                   3,402,934,272 bytes
Total Bitrate:          10.22 Mbps
VIDEO:
Codec                   Bitrate             Description
-----                   -------             -----------
MPEG-4 AVC Video        5000 kbps           1080p / 23.976 fps / 16:9 / High Profile 4.1
AUDIO:
Codec                           Language        Bitrate         Description
-----                           --------        -------         -----------
LPCM Audio                      English         4608 kbps       2.0 / 96 kHz / 4608 kbps / 24-bit
FILES:
Name            Time In         Length          Size            Total Bitrate
----            -------         ------          ----            -------------
00004.M2TS      0:00:00.000     0:44:23.452     3,402,934,272   10,221 kbps
CHAPTERS:
Number          Time In         Length          Avg Video Rate  Max 1-Sec Rate  Max 1-Sec Time  Max 5-Sec Rate  Max 5-Sec Time  Max 10Sec Rate  Max 10Sec Time  Avg Frame Size  Max Frame Size  Max Frame Time
------          -------         ------          --------------  --------------  --------------  --------------  --------------  --------------  --------------  --------------  --------------  --------------
1               0:00:00.000     0:01:53.196     5,070 kbps      11,025 kbps     0:00:03.169     6,675 kbps      0:00:03.128     6,115 kbps      0:00:03.128     26,426 bytes    487,609 bytes   0:00:44.043
2               0:01:53.196     0:11:22.181     4,975 kbps      7,655 kbps      0:13:14.376     5,489 kbps      0:13:10.372     5,236 kbps      0:12:27.830     25,942 bytes    483,954 bytes   0:10:40.723
3               0:13:15.377     0:04:32.146     5,010 kbps      8,233 kbps      0:17:46.523     5,608 kbps      0:17:42.519     5,291 kbps      0:17:37.514     26,124 bytes    527,384 bytes   0:17:03.605
4               0:17:47.524     0:09:14.929     5,022 kbps      7,603 kbps      0:27:01.453     5,494 kbps      0:26:57.449     5,220 kbps      0:20:33.857     26,184 bytes    493,248 bytes   0:21:03.720
5               0:27:02.454     0:02:06.543     4,996 kbps      7,396 kbps      0:29:08.163     5,506 kbps      0:29:03.992     5,225 kbps      0:28:59.154     26,039 bytes    486,194 bytes   0:27:38.490
6               0:29:08.997     0:02:45.164     4,959 kbps      6,104 kbps      0:31:37.145     5,332 kbps      0:31:33.141     5,212 kbps      0:31:28.136     25,856 bytes    480,644 bytes   0:30:04.052
7               0:31:54.162     0:03:32.503     5,009 kbps      7,243 kbps      0:35:25.665     5,512 kbps      0:35:21.661     5,271 kbps      0:32:28.196     26,120 bytes    489,522 bytes   0:32:04.172
8               0:35:26.666     0:03:08.897     5,013 kbps      7,562 kbps      0:38:34.562     5,610 kbps      0:38:30.558     5,360 kbps      0:38:25.553     26,140 bytes    488,044 bytes   0:37:04.764
9               0:38:35.563     0:03:40.970     4,991 kbps      7,608 kbps      0:42:15.533     5,459 kbps      0:42:11.529     5,248 kbps      0:39:28.616     26,024 bytes    488,678 bytes   0:40:04.652
10              0:42:16.534     0:02:06.918     4,984 kbps      8,606 kbps      0:44:22.117     5,665 kbps      0:44:18.113     5,256 kbps      0:44:13.108     25,988 bytes    482,374 bytes   0:42:39.557
STREAM DIAGNOSTICS:
File            PID             Type            Codec           Language                Seconds                 Bitrate                 Bytes           Packets
----            ---             ----            -----           --------                --------------          --------------          -------------   -----
00004.M2TS      4113 (0x1011)   0x1B            AVC                                     2663.41                 5000.2                  1,664,699,560   9,085,302
00004.M2TS      4352 (0x1100)   0x80            LPCM            eng (English)           2671.49                 4608                    1,540,921,200   8,548,800
QUICK SUMMARY:
Disc Title: King Crimson In The Wake Of PoseidonDisc Size: 29,068,490,752 bytesProtection: AACS(v63)BD-Java: YesPlaylist: 00004.MPLSSize: 3,402,934,272 bytesLength: 0:44:23.452Total Bitrate: 10.22 MbpsVideo: MPEG-4 AVC Video / 5000 kbps / 1080p / 23.976 fps / 16:9 / High Profile 4.1Audio: English / LPCM Audio / 2.0 / 96 kHz / 4608 kbps / 24-bit
********************PLAYLIST: 00003.MPLS********************
Total   Video
Title                                                           Codec   Length   Movie Size      Disc Size       Bitrate Bitrate Main Audio Track                          Secondary Audio Track
-----                                                           ------  -------  --------------  --------------  ------- ------- ------------------                        ---------------------
00003.MPLS                                                      AVC     0:41:08  3,149,457,408   29,068,490,752  10.21   5.00    LPCM 2.0
DISC INFO:
Disc Title:     King Crimson In The Wake Of Poseidon
Disc Size:      29,068,490,752 bytes
Protection:     AACS(v63)
BD-Java:        Yes
BDInfo:         0.5.8.1 (compatible layout created by DVDFab 9.3.1.2)
PLAYLIST REPORT:
Name:                   00003.MPLS
Length:                 0:41:08.466 (h:m:s.ms)
Size:                   3,149,457,408 bytes
Total Bitrate:          10.21 Mbps
VIDEO:
Codec                   Bitrate             Description
-----                   -------             -----------
MPEG-4 AVC Video        5001 kbps           1080p / 23.976 fps / 16:9 / High Profile 4.1
AUDIO:
Codec                           Language        Bitrate         Description
-----                           --------        -------         -----------
LPCM Audio                      English         4608 kbps       2.0 / 96 kHz / 4608 kbps / 24-bit
FILES:
Name            Time In         Length          Size            Total Bitrate
----            -------         ------          ----            -------------
00003.M2TS      0:00:00.000     0:41:08.466     3,149,457,408   10,207 kbps
CHAPTERS:
Number          Time In         Length          Avg Video Rate  Max 1-Sec Rate  Max 1-Sec Time  Max 5-Sec Rate  Max 5-Sec Time  Max 10Sec Rate  Max 10Sec Time  Avg Frame Size  Max Frame Size  Max Frame Time
------          -------         ------          --------------  --------------  --------------  --------------  --------------  --------------  --------------  --------------  --------------  --------------
1               0:00:00.000     0:00:54.554     4,951 kbps      16,255 kbps     0:00:04.045     7,478 kbps      0:00:04.129     6,352 kbps      0:00:04.129     25,792 bytes    479,846 bytes   0:00:44.043
2               0:00:54.554     0:08:01.189     5,003 kbps      8,052 kbps      0:08:54.742     5,543 kbps      0:08:50.738     5,254 kbps      0:08:45.733     26,088 bytes    494,216 bytes   0:04:03.743
3               0:08:55.743     0:04:37.652     5,008 kbps      7,423 kbps      0:13:32.394     5,594 kbps      0:13:28.390     5,343 kbps      0:13:23.385     26,111 bytes    482,024 bytes   0:11:40.908
4               0:13:33.395     0:07:56.893     4,994 kbps      7,496 kbps      0:21:29.288     5,554 kbps      0:21:25.283     5,291 kbps      0:21:20.279     26,040 bytes    519,766 bytes   0:17:04.606
5               0:21:30.289     0:01:15.075     5,006 kbps      5,831 kbps      0:22:37.731     5,251 kbps      0:21:34.293     5,141 kbps      0:21:30.289     26,100 bytes    482,186 bytes   0:21:45.304
6               0:22:45.364     0:04:55.086     4,987 kbps      8,208 kbps      0:27:39.449     5,733 kbps      0:27:35.445     5,408 kbps      0:27:30.440     26,001 bytes    485,577 bytes   0:27:40.450
7               0:27:40.450     0:03:49.771     5,007 kbps      7,512 kbps      0:31:29.220     5,670 kbps      0:31:25.216     5,349 kbps      0:31:20.211     26,107 bytes    485,251 bytes   0:29:05.535
8               0:31:30.221     0:03:58.404     5,001 kbps      6,984 kbps      0:35:27.625     5,487 kbps      0:35:23.621     5,245 kbps      0:35:18.616     26,075 bytes    482,989 bytes   0:33:05.316
9               0:35:28.626     0:03:46.809     5,000 kbps      7,705 kbps      0:39:14.435     5,447 kbps      0:39:10.431     5,245 kbps      0:39:05.426     26,068 bytes    494,150 bytes   0:37:05.723
10              0:39:15.436     0:01:53.029     5,040 kbps      14,342 kbps     0:41:05.504     7,886 kbps      0:41:02.418     6,398 kbps      0:40:57.413     26,269 bytes    484,347 bytes   0:40:47.528
STREAM DIAGNOSTICS:
File            PID             Type            Codec           Language                Seconds                 Bitrate                 Bytes           Packets
----            ---             ----            -----           --------                --------------          --------------          -------------   -----
00003.M2TS      4113 (0x1011)   0x1B            AVC                                     2468.42                 5000.93                 1,543,052,590   8,421,612
00003.M2TS      4352 (0x1100)   0x80            LPCM            eng (English)           2468.47                 4608                    1,423,813,496   7,899,104
QUICK SUMMARY:
Disc Title: King Crimson In The Wake Of PoseidonDisc Size: 29,068,490,752 bytesProtection: AACS(v63)BD-Java: YesPlaylist: 00003.MPLSSize: 3,149,457,408 bytesLength: 0:41:08.466Total Bitrate: 10.21 MbpsVideo: MPEG-4 AVC Video / 5001 kbps / 1080p / 23.976 fps / 16:9 / High Profile 4.1Audio: English / LPCM Audio / 2.0 / 96 kHz / 4608 kbps / 24-bit
********************PLAYLIST: 00001.MPLS********************
Total   Video
Title                                                           Codec   Length   Movie Size      Disc Size       Bitrate Bitrate Main Audio Track                          Secondary Audio Track
-----                                                           ------  -------  --------------  --------------  ------- ------- ------------------                        ---------------------
00001.MPLS                                                      AVC     0:01:09  46,381,056      29,068,490,752  5.30    5.01
DISC INFO:
Disc Title:     King Crimson In The Wake Of Poseidon
Disc Size:      29,068,490,752 bytes
Protection:     AACS(v63)
BD-Java:        Yes
BDInfo:         0.5.8.1 (compatible layout created by DVDFab 9.3.1.2)
PLAYLIST REPORT:
Name:                   00001.MPLS
Length:                 0:01:09.986 (h:m:s.ms)
Size:                   46,381,056 bytes
Total Bitrate:          5.30 Mbps
VIDEO:
Codec                   Bitrate             Description
-----                   -------             -----------
MPEG-4 AVC Video        5015 kbps           1080p / 23.976 fps / 16:9 / High Profile 4.1
FILES:
Name            Time In         Length          Size            Total Bitrate
----            -------         ------          ----            -------------
00001.M2TS      0:00:00.000     0:01:09.986     46,381,056      5,301 kbps
CHAPTERS:
Number          Time In         Length          Avg Video Rate  Max 1-Sec Rate  Max 1-Sec Time  Max 5-Sec Rate  Max 5-Sec Time  Max 10Sec Rate  Max 10Sec Time  Avg Frame Size  Max Frame Size  Max Frame Time
------          -------         ------          --------------  --------------  --------------  --------------  --------------  --------------  --------------  --------------  --------------  --------------
1               0:00:00.000     0:00:06.006     3,071 kbps      13,361 kbps     0:00:04.546     3,646 kbps      0:00:01.042     0 kbps          0:00:00.000     15,796 bytes    406,529 bytes   0:00:06.005
2               0:00:06.006     0:01:00.060     5,191 kbps      6,706 kbps      0:00:07.799     6,157 kbps      0:00:06.047     5,974 kbps      0:00:06.047     27,084 bytes    534,594 bytes   0:01:06.066
3               0:01:06.066     0:00:03.920     5,399 kbps      10,473 kbps     0:01:08.443     0 kbps          0:00:00.000     0 kbps          0:00:00.000     27,543 bytes    524,564 bytes   0:01:07.067
STREAM DIAGNOSTICS:
File            PID             Type            Codec           Language                Seconds                 Bitrate                 Bytes           Packets
----            ---             ----            -----           --------                --------------          --------------          -------------   -----
00001.M2TS      4113 (0x1011)   0x1B            AVC                                     69.94                   5014.56                 43,842,804      239,213
QUICK SUMMARY:
Disc Title: King Crimson In The Wake Of PoseidonDisc Size: 29,068,490,752 bytesProtection: AACS(v63)BD-Java: YesPlaylist: 00001.MPLSSize: 46,381,056 bytesLength: 0:01:09.986Total Bitrate: 5.30 MbpsVideo: MPEG-4 AVC Video / 5015 kbps / 1080p / 23.976 fps / 16:9 / High Profile 4.1
********************PLAYLIST: 00000.MPLS********************
Total   Video
Title                                                           Codec   Length   Movie Size      Disc Size       Bitrate Bitrate Main Audio Track                          Secondary Audio Track
-----                                                           ------  -------  --------------  --------------  ------- ------- ------------------                        ---------------------
00000.MPLS                                                      AVC     0:00:30  48,488,448      29,068,490,752  12.92   10.56   LPCM 2.0
DISC INFO:
Disc Title:     King Crimson In The Wake Of Poseidon
Disc Size:      29,068,490,752 bytes
Protection:     AACS(v63)
BD-Java:        Yes
BDInfo:         0.5.8.1 (compatible layout created by DVDFab 9.3.1.2)
PLAYLIST REPORT:
Name:                   00000.MPLS
Length:                 0:00:30.030 (h:m:s.ms)
Size:                   48,488,448 bytes
Total Bitrate:          12.92 Mbps
VIDEO:
Codec                   Bitrate             Description
-----                   -------             -----------
MPEG-4 AVC Video        10558 kbps          1080p / 23.976 fps / 16:9 / High Profile 4.1
AUDIO:
Codec                           Language        Bitrate         Description
-----                           --------        -------         -----------
LPCM Audio                      English         1536 kbps       2.0 / 48 kHz / 1536 kbps / 16-bit
FILES:
Name            Time In         Length          Size            Total Bitrate
----            -------         ------          ----            -------------
00000.M2TS      0:00:00.000     0:00:30.030     48,488,448      12,917 kbps
CHAPTERS:
Number          Time In         Length          Avg Video Rate  Max 1-Sec Rate  Max 1-Sec Time  Max 5-Sec Rate  Max 5-Sec Time  Max 10Sec Rate  Max 10Sec Time  Avg Frame Size  Max Frame Size  Max Frame Time
------          -------         ------          --------------  --------------  --------------  --------------  --------------  --------------  --------------  --------------  --------------  --------------
1               0:00:00.000     0:00:30.030     10,557 kbps     30,080 kbps     0:00:24.983     22,729 kbps     0:00:20.979     20,968 kbps     0:00:15.306     54,965 bytes    916,207 bytes   0:00:24.024
STREAM DIAGNOSTICS:
File            PID             Type            Codec           Language                Seconds                 Bitrate                 Bytes           Packets
----            ---             ----            -----           --------                --------------          --------------          -------------   -----
00000.M2TS      4113 (0x1011)   0x1B            AVC                                     29.99                   10557.5                 39,575,287      215,484
00000.M2TS      4352 (0x1100)   0x80            LPCM            eng (English)           30.02                   1536                    5,789,784       36,036
QUICK SUMMARY:
Disc Title: King Crimson In The Wake Of PoseidonDisc Size: 29,068,490,752 bytesProtection: AACS(v63)BD-Java: YesPlaylist: 00000.MPLSSize: 48,488,448 bytesLength: 0:00:30.030Total Bitrate: 12.92 MbpsVideo: MPEG-4 AVC Video / 10558 kbps / 1080p / 23.976 fps / 16:9 / High Profile 4.1Audio: English / LPCM Audio / 2.0 / 48 kHz / 1536 kbps / 16-bit

Состав

Bass – Peter Giles
Drums – Michael Giles
Guitar, Mellotron, Effects [Devices] – Robert Fripp
Piano – Keith Tippet
Saxophone, Flute – Mel Collins
Vocals – Greg Lake
Words By – Peter Sinfield

Скриншоты меню


Об альбоме (сборнике)

King Crimson - Sailors’ Tales (40 Anniversary Edition)
4 × Blu-ray, Blu-ray Audio, Stereo, Multichannel
3 blu-ray discs contain the main studio albums in 5.1 Surround Sound, recent stereo editions mixed by Steven Wilson and Robert Fripp, 30th anniversary masters of the original stereo albums mixes (all in 24/96 hi-res), plus extensive additional material with each disc also featuring a complete alternate album and a further selection of additional, related studio/live material in hi-res.
* The Lizard blu-ray also contains the audition material from CDs19/20.
* The Islands blu-ray also contains the following concerts in stereo Zoom Club (4 shows), Marquee Club, Plymouth, Glasgow, Detroit all from 1971.
* The Earthbound Tour blu-ray features an expanded version of the original album, Summit Studios gig in Stereo and Quadraphonic (newly mixed), the Schizoid Men sequence from the Ladies of the Road album, 2 newly discovered concerts in hi-res stereo and every existing soundboard concert recording from the 1972 US tour: Wilmington, NYC (2 shows), Chicago (2 tracks only), Detroit, Jacksonville, Orlando, Pittsburgh, Milwaukee, Peoria, Indianapolis & Denver (2 shows). T
HRAudio.net


[torrentc.info]_t_5487862.torrent
Торрент: Зарегистрирован ·  [ 2017-12-07 21:42 ] ·  8cf636ca2554f6619409d56c6f85a02c661961d3

160 KB

Статус: проверено
Скачан: 0 раз
Размер: 29.39 GB
Оценка: 
(Голосов: 0)
Сказали спасибо: 0  Спасибо
Похожие темы
[Профиль]    [ЛС]
Показать сообщения:    
Ответить на тему

Текущее время: Сегодня 12:36

Часовой пояс: GMT + 7



Вы не можете начинать темы
Вы не можете отвечать на сообщения
Вы не можете редактировать свои сообщения
Вы не можете удалять свои сообщения
Вы не можете голосовать в опросах
Вы не можете прикреплять файлы к сообщениям
Вы можете скачивать файлы