(Jazz) [CD] Patricia Barber - Cafe Blue - 1994, FLAC (image+.cue), lossless

Ответить на тему
Статистика раздачи [Обновить пиров]
Размер:  320 MB   |    Зарегистрирован:  8 месяцев 11 дней   |    Скачан:  0 раз

Полного источника не было: Никогда

Личеров:  1  [  0 KB/s  ]   Подробная статистика скачивающих
 
   
 
 
 
Автор Сообщение

torrentc.info

Создавать темы 06-Дек-2017 23:12

[Цитировать]

Patricia Barber / Cafe Blue
Жанр: Jazz
Носитель: CD
Страна-производитель диска (релиза): USA
Год издания: 1994
Издатель (лейбл): Premonition Records
Номер по каталогу: PREM-737-2
Страна исполнителя (группы): USA
Аудиокодек: FLAC (*.flac)
Тип рипа: image+.cue
Битрейт аудио: lossless
Продолжительность: 01:02:52
Источник (релизер): barsu-1
Наличие сканов в содержимом раздачи: да
Треклист:
1 What A Shame 5:24
2 Mourning Grace 6:59
3 Thrill Is Gone 4:40
4 Romanesque 4:27
5 Yellow Car III 5:08
6 Wood Is A Pleasant Thing To Think About 0:57
7 Inchworm 5:03
8 Ode To Billie Joe 5:20
9 Too Rich For My Blood 8:00
10 Taste Of Honey 4:28
11 Nardis 9:03
12 Manha De Carnaval 3:21

Лог создания рипа

Exact Audio Copy V1.3 from 2. September 2016
Отчёт EAC об извлечении, выполненном 26. ноября 2017, 22:04
Patricia Barber / Caf Blue
Дисковод: ASUS DRW-1814BLT Adapter: 1 ID: 0
Режим чтения : ДостоверностьИспользование точного потока : ДаОтключение кэша аудио : ДаИспользование указателей C2 : Нет
Коррекция смещения при чтении : 6Способность читать области Lead-in и Lead-out : НетЗаполнение пропущенных сэмплов тишиной : ДаУдаление блоков с тишиной в начале и конце : НетПри вычислениях CRC использовались нулевые сэмплы : ДаИнтерфейс : Встроенный Win32-интерфейс для Win NT/2000
Выходной формат : Пользовательский кодировщикВыбранный битрейт : 1024 kBit/sКачество : ВысокийДобавление ID3-тега : НетУтилита сжатия : C:\Program Files\Exact Audio Copy\Flac\flac.exeДополнительные параметры : -V -8 -T "Date=%year%" -T "Genre=%genre%" %source%
TOC извлечённого CD
Трек | Старт | Длительность | Начальный сектор | Конечный сектор --------------------------------------------------------------------- 1 | 0:00.00 | 5:24.50 | 0 | 24349 2 | 5:24.50 | 6:59.15 | 24350 | 55789 3 | 12:23.65 | 4:39.55 | 55790 | 76769 4 | 17:03.45 | 4:27.40 | 76770 | 96834 5 | 21:31.10 | 5:08.32 | 96835 | 119966 6 | 26:39.42 | 0:57.63 | 119967 | 124304 7 | 27:37.30 | 5:03.10 | 124305 | 147039 8 | 32:40.40 | 5:20.45 | 147040 | 171084 9 | 38:01.10 | 7:59.30 | 171085 | 207039 10 | 46:00.40 | 4:28.55 | 207040 | 227194 11 | 50:29.20 | 9:02.20 | 227195 | 267864 12 | 59:31.40 | 3:20.10 | 267865 | 282874
Характеристики диапазона извлечения и сообщения об ошибках
Выбранный диапазон
Имя файла D:\Patricia Barber 1994 Cafe Blue\Patricia Barber - Caf Blue.wav
Пиковый уровень 99.6 % Скорость извлечения 2.4 X Качество диапазона 100.0 % CRC теста 9C86D72D CRC копии 9C86D72D Копирование... OK
Ошибок не произошло
AccurateRip: сводка
Трек 1 : извлечено точно (доверие 49) [7C743934] (AR v2)Трек 2 : извлечено точно (доверие 49) [C730019A] (AR v2)Трек 3 : извлечено точно (доверие 48) [87D2F3CB] (AR v2)Трек 4 : извлечено точно (доверие 49) [301CB57B] (AR v2)Трек 5 : извлечено точно (доверие 49) [DA71DD35] (AR v2)Трек 6 : извлечено точно (доверие 49) [4A16969B] (AR v2)Трек 7 : извлечено точно (доверие 49) [D3502C17] (AR v2)Трек 8 : извлечено точно (доверие 48) [948DACA9] (AR v2)Трек 9 : извлечено точно (доверие 49) [CB7CA196] (AR v2)Трек 10 : извлечено точно (доверие 49) [C8A9DC39] (AR v2)Трек 11 : извлечено точно (доверие 48) [EE94BEA0] (AR v2)Трек 12 : извлечено точно (доверие 47) [31E06CC3] (AR v2)
Все треки извлечены точно
Конец отчёта
---- CUETools DB Plugin V2.1.6
[CTDB TOCID: IH1_TmRF3B8H0xvawyRMuJr.c8U-] foundSubmit result: IH1_TmRF3B8H0xvawyRMuJr.c8U- has been confirmedTrack | CTDB Status 1 | (83/84) Accurately ripped 2 | (83/84) Accurately ripped 3 | (83/84) Accurately ripped 4 | (83/84) Accurately ripped 5 | (83/84) Accurately ripped 6 | (83/84) Accurately ripped 7 | (83/84) Accurately ripped 8 | (83/84) Accurately ripped 9 | (82/84) Accurately ripped 10 | (83/84) Accurately ripped 11 | (83/84) Accurately ripped 12 | (83/84) Accurately ripped
==== Контрольная сумма отчёта 4D6C60396B930C3A8D3C4302D3B5AD79D10C1FFE80D548E8E458360C88D3CD35 ====

Содержание индексной карты (.CUE)

REM GENRE "Vocal Jazz"REM DATE 1994REM DISCID 9C0EBB0CREM COMMENT "ExactAudioCopy v1.3"PERFORMER "Patricia Barber"TITLE "Caf Blue"REM COMPOSER ""FILE "Patricia Barber - Caf Blue.flac" WAVE TRACK 01 AUDIO TITLE "What A Shame" PERFORMER "Patricia Barber" REM COMPOSER "" INDEX 01 00:00:00 TRACK 02 AUDIO TITLE "Mourning Grace" PERFORMER "Patricia Barber" REM COMPOSER "" INDEX 00 05:23:50 INDEX 01 05:24:50 TRACK 03 AUDIO TITLE "The Thrill is Gone" PERFORMER "Patricia Barber" REM COMPOSER "" INDEX 00 12:22:20 INDEX 01 12:23:65 TRACK 04 AUDIO TITLE "Romanesque" PERFORMER "Patricia Barber" REM COMPOSER "" INDEX 00 17:03:00 INDEX 01 17:03:45 TRACK 05 AUDIO TITLE "Yellow Car III" PERFORMER "Patricia Barber" REM COMPOSER "" INDEX 00 21:30:25 INDEX 01 21:31:10 TRACK 06 AUDIO TITLE "Wood is a Pleasant Thing to Think About" PERFORMER "Patricia Barber" REM COMPOSER "" INDEX 00 26:37:45 INDEX 01 26:39:42 TRACK 07 AUDIO TITLE "Inch Worm" PERFORMER "Patricia Barber" REM COMPOSER "" INDEX 00 27:36:45 INDEX 01 27:37:30 TRACK 08 AUDIO TITLE "Ode to Billy Joe" PERFORMER "Patricia Barber" REM COMPOSER "" INDEX 01 32:40:40 TRACK 09 AUDIO TITLE "Too Rich for my Blood" PERFORMER "Patricia Barber" REM COMPOSER "" INDEX 01 38:01:10 TRACK 10 AUDIO TITLE "A Taste of Honey" PERFORMER "Patricia Barber" REM COMPOSER "" INDEX 00 45:59:47 INDEX 01 46:00:40 TRACK 11 AUDIO TITLE "Nardis" PERFORMER "Patricia Barber" REM COMPOSER "" INDEX 00 50:28:60 INDEX 01 50:29:20 TRACK 12 AUDIO TITLE "Manha de Carnaval" PERFORMER "Patricia Barber" REM COMPOSER "" INDEX 00 59:30:67 INDEX 01 59:31:40

Об альбоме (сборнике)

https://www.discogs.com/Patricia-Barber-Cafe-Blue/release/2209483


[torrentc.info]_t_5489873.torrent
Торрент: Зарегистрирован ·  [ 2017-12-06 23:12 ] ·  95813bd260041feb164d7f5f6ae9144634e6fa98

13 KB

Статус: проверено
Скачан: 0 раз
Размер: 320 MB
Оценка: 
(Голосов: 0)
Сказали спасибо: 0  Спасибо
Похожие темы
[Профиль]    [ЛС]
Показать сообщения:    
Ответить на тему

Текущее время: Сегодня 21:26

Часовой пояс: GMT + 7



Вы не можете начинать темы
Вы не можете отвечать на сообщения
Вы не можете редактировать свои сообщения
Вы не можете удалять свои сообщения
Вы не можете голосовать в опросах
Вы не можете прикреплять файлы к сообщениям
Вы можете скачивать файлы