(Cool, Mainstream Jazz, Christmas) [CD] Vince Guaraldi Trio - A Charlie Brown Christmas - 1965 (2003), FLAC (tracks+.cue), lossless

Ответить на тему
Статистика раздачи [Обновить пиров]
Размер:  227 MB   |    Зарегистрирован:  9 месяцев 12 дней   |    Скачан:  0 раз

Полного источника не было: Никогда

 
   
 
 
 
Автор Сообщение

torrentc.info

Создавать темы 06-Дек-2017 18:43

[Цитировать]

Vince Guaraldi Trio - A Charlie Brown Christmas
Жанр: Cool, Mainstream Jazz, Christmas
Носитель: CD
Страна-производитель диска (релиза): США
Год издания: 1965 (2003)
Издатель (лейбл): Fantasy
Номер по каталогу: FSA-8431-6
Аудиокодек: FLAC (*.flac)
Тип рипа: tracks+.cue
Битрейт аудио: lossless
Продолжительность: 40:25
Источник (релизер): mclarenspy
Наличие сканов в содержимом раздачи: да
Треклист:
01. O Tannenbaum (arr. Guaraldi) - 5:08
02. What Child Is This (arr. Guaraldi) - 2:25
03. My Little Drum (Guaraldi) - 3:13
04. Linus and Lucy (Guaraldi) - 3:07
05. Christmas Time Is Here (instrumental) (Guaraldi-Mendelson) - 6:06
06. Christmas Time Is Here (vocal) (Guaraldi-Mendelson) - 2:47
07. Skating (Guaraldi) - 2:27
08. Hark, The Herald Angels Sing (Trad.) - 1:55
09. Christmas Is Coming (Guaraldi) - 3:26
10. Fur Elise (Beethoven) - 1:07
11. The Christmas Song (Torme-Wells) - 3:17
12. Greensleeves (Trad.) - 5:27
Состав:
Vince Guaraldi - piano
Fred Marshall, Monty Budwig - bass
Jerry Granelli, Colin Bailey - drums
Released in 1965; first broadcast December 9, 1965.

Лог создания рипа

Exact Audio Copy V1.3 from 2. September 2016
EAC extraction logfile from 2. August 2017, 22:04
Vince Guaraldi Trio / A Charlie Brown Christmas (2003 Hybrid SACD)
Used drive : PLEXTOR CD-R PREMIUM Adapter: 1 ID: 1
Read mode : SecureUtilize accurate stream : YesDefeat audio cache : YesMake use of C2 pointers : No
Read offset correction : 30Overread into Lead-In and Lead-Out : NoFill up missing offset samples with silence : YesDelete leading and trailing silent blocks : NoNull samples used in CRC calculations : YesUsed interface : Native Win32 interface for Win NT & 2000Gap handling : Appended to previous track
Used output format : User Defined EncoderSelected bitrate : 768 kBit/sQuality : HighAdd ID3 tag : NoCommand line compressor : C:\Program Files (x86)\Exact Audio Copy\FLAC\FLAC.EXEAdditional command line options : -6 -e -p -V -T "ARTIST=%artist%" -T "TITLE=%title%" -T "ALBUM=%albumtitle%" -T "DATE=%year%" -T "TRACKNUMBER=%tracknr%" -T "GENRE=%genre%" -T "PERFORMER=%albuminterpret%" -T "COMPOSER=%composer%" %haslyrics%--tag-from-file=LYRICS="%lyricsfile%"%haslyrics% -T "ALBUMARTIST=%albumartist%" -T "DISCNUMBER=%cdnumber%" -T "TOTALDISCS=%totalcds%" -T "TOTALTRACKS=%numtracks%" -T "COMMENT=%comment%" %source% -o %dest%
TOC of the extracted CD
Track | Start | Length | Start sector | End sector --------------------------------------------------------- 1 | 0:00.00 | 5:08.18 | 0 | 23117 2 | 5:08.18 | 2:25.32 | 23118 | 34024 3 | 7:33.50 | 3:12.65 | 34025 | 48489 4 | 10:46.40 | 3:06.45 | 48490 | 62484 5 | 13:53.10 | 6:05.65 | 62485 | 89924 6 | 19:59.00 | 2:47.03 | 89925 | 102452 7 | 22:46.03 | 2:27.00 | 102453 | 113477 8 | 25:13.03 | 1:55.22 | 113478 | 122124 9 | 27:08.25 | 3:25.40 | 122125 | 137539 10 | 30:33.65 | 1:06.53 | 137540 | 142542 11 | 31:40.43 | 3:17.32 | 142543 | 157349 12 | 34:58.00 | 5:26.65 | 157350 | 181864
Track 1
Filename C:\tmp\00_RIPS\01 - O Tannenbaum.wav
Pre-gap length 0:00:02.00
Peak level 99.0 % Extraction speed 8.6 X Track quality 100.0 % Test CRC 98CF608D Copy CRC 98CF608D Accurately ripped (confidence 16) [1BD7DB6B] (AR v2) Copy OK
Track 2
Filename C:\tmp\00_RIPS\02 - What Child Is This.wav
Pre-gap length 0:00:03.60
Peak level 98.4 % Extraction speed 7.1 X Track quality 99.9 % Test CRC FE5BA18C Copy CRC FE5BA18C Accurately ripped (confidence 16) [C89AB7E9] (AR v2) Copy OK
Track 3
Filename C:\tmp\00_RIPS\03 - My Little Drum.wav
Pre-gap length 0:00:03.89
Peak level 98.6 % Extraction speed 8.0 X Track quality 99.9 % Test CRC 32CBB088 Copy CRC 32CBB088 Accurately ripped (confidence 16) [69C1A71C] (AR v2) Copy OK
Track 4
Filename C:\tmp\00_RIPS\04 - Linus And Lucy.wav
Pre-gap length 0:00:03.69
Peak level 98.9 % Extraction speed 10.0 X Track quality 100.0 % Test CRC 724BC8DF Copy CRC 724BC8DF Accurately ripped (confidence 16) [E3765B96] (AR v2) Copy OK
Track 5
Filename C:\tmp\00_RIPS\05 - Christmas Time Is Here (instrumental).wav
Pre-gap length 0:00:03.46
Peak level 98.5 % Extraction speed 10.2 X Track quality 99.9 % Test CRC C036ED26 Copy CRC C036ED26 Accurately ripped (confidence 16) [EB1159D4] (AR v2) Copy OK
Track 6
Filename C:\tmp\00_RIPS\06 - Christmas Time Is Here (vocal).wav
Pre-gap length 0:00:02.53
Peak level 98.5 % Extraction speed 11.6 X Track quality 100.0 % Test CRC DE11E836 Copy CRC DE11E836 Accurately ripped (confidence 16) [0776CDD6] (AR v2) Copy OK
Track 7
Filename C:\tmp\00_RIPS\07 - Skating.wav
Pre-gap length 0:00:03.10
Peak level 98.0 % Extraction speed 11.8 X Track quality 100.0 % Test CRC 94AB44B3 Copy CRC 94AB44B3 Accurately ripped (confidence 16) [4A466618] (AR v2) Copy OK
Track 8
Filename C:\tmp\00_RIPS\08 - Hark, The Herald Angels Sing.wav
Pre-gap length 0:00:03.53
Peak level 81.9 % Extraction speed 12.0 X Track quality 100.0 % Test CRC C35BC5D7 Copy CRC C35BC5D7 Accurately ripped (confidence 16) [43365EAA] (AR v2) Copy OK
Track 9
Filename C:\tmp\00_RIPS\09 - Christmas Time Is Coming.wav
Pre-gap length 0:00:03.22
Peak level 95.2 % Extraction speed 10.1 X Track quality 99.9 % Test CRC F883E3A3 Copy CRC F883E3A3 Accurately ripped (confidence 17) [A31BDC14] (AR v2) Copy OK
Track 10
Filename C:\tmp\00_RIPS\10 - Für Elise.wav
Pre-gap length 0:00:03.36
Peak level 62.7 % Extraction speed 6.7 X Track quality 99.8 % Test CRC 1FB1CFEB Copy CRC 1FB1CFEB Accurately ripped (confidence 16) [60EBB327] (AR v2) Copy OK
Track 11
Filename C:\tmp\00_RIPS\11 - The Christmas Song.wav
Pre-gap length 0:00:03.33
Peak level 84.4 % Extraction speed 13.3 X Track quality 100.0 % Test CRC 3A75F73D Copy CRC 3A75F73D Accurately ripped (confidence 16) [A510B86B] (AR v2) Copy OK
Track 12
Filename C:\tmp\00_RIPS\12 - Greensleeves.wav
Pre-gap length 0:00:02.22
Peak level 98.5 % Extraction speed 13.0 X Track quality 100.0 % Test CRC A98718DD Copy CRC A98718DD Accurately ripped (confidence 16) [C36C1FC1] (AR v2) Copy OK
All tracks accurately ripped
No errors occurred
End of status report
---- CUETools DB Plugin V2.1.6
[CTDB TOCID: BzwhmhQ5CKiI6ag9TFg4NoVyOuA-] foundSubmit result: BzwhmhQ5CKiI6ag9TFg4NoVyOuA- has been confirmedTrack | CTDB Status 1 | (18/18) Accurately ripped 2 | (18/18) Accurately ripped 3 | (18/18) Accurately ripped 4 | (18/18) Accurately ripped 5 | (18/18) Accurately ripped 6 | (18/18) Accurately ripped 7 | (18/18) Accurately ripped 8 | (18/18) Accurately ripped 9 | (18/18) Accurately ripped 10 | (18/18) Accurately ripped 11 | (18/18) Accurately ripped 12 | (18/18) Accurately ripped
==== Log checksum 035957C079F8851FAC99319480FC5497EDF9917D795D7A3A0A1D37D073C2D1ED ====

Содержание индексной карты (.CUE)

REM GENRE JazzREM DATE 1965REM DISCID 8209780CREM COMMENT "ExactAudioCopy v1.3"PERFORMER "Vince Guaraldi"TITLE "A Charlie Brown Christmas"FILE "01 - O Tannenbaum.wav" WAVE TRACK 01 AUDIO TITLE "O Tannenbaum" PERFORMER "Vince Guaraldi" ISRC USFI86600060 INDEX 01 00:00:00 TRACK 02 AUDIO TITLE "What Child Is This" PERFORMER "Vince Guaraldi" ISRC USFI86600061 INDEX 00 05:04:48FILE "02 - What Child Is This.wav" WAVE INDEX 01 00:00:00 TRACK 03 AUDIO TITLE "My Little Drum" PERFORMER "Vince Guaraldi" ISRC USFI86600062 INDEX 00 02:21:40FILE "03 - My Little Drum.wav" WAVE INDEX 01 00:00:00 TRACK 04 AUDIO TITLE "Linus and Lucy" PERFORMER "Vince Guaraldi" ISRC USFI86600063 INDEX 00 03:09:13FILE "04 - Linus and Lucy.wav" WAVE INDEX 01 00:00:00 TRACK 05 AUDIO TITLE "Christmas Time Is Here (instrumental)" PERFORMER "Vince Guaraldi" ISRC USFI86600064 INDEX 00 03:03:10FILE "05 - Christmas Time Is Here (instrumental).wav" WAVE INDEX 01 00:00:00 TRACK 06 AUDIO TITLE "Christmas Time Is Here (vocal)" PERFORMER "Vince Guaraldi" ISRC USFI86600065 INDEX 00 06:03:25FILE "06 - Christmas Time Is Here (vocal).wav" WAVE INDEX 01 00:00:00 TRACK 07 AUDIO TITLE "Skating" PERFORMER "Vince Guaraldi" ISRC USFI86600066 INDEX 00 02:43:70FILE "07 - Skating.wav" WAVE INDEX 01 00:00:00 TRACK 08 AUDIO TITLE "Hark, the Herald Angels Sing" PERFORMER "Vince Guaraldi" ISRC USFI86600067 INDEX 00 02:23:35FILE "08 - Hark, the Herald Angels Sing.wav" WAVE INDEX 01 00:00:00 TRACK 09 AUDIO TITLE "Christmas Is Coming" PERFORMER "Vince Guaraldi" ISRC USFI86600068 INDEX 00 01:52:05FILE "09 - Christmas Is Coming.wav" WAVE INDEX 01 00:00:00 TRACK 10 AUDIO TITLE "Fur Elise" PERFORMER "Vince Guaraldi" ISRC USFI86600069 INDEX 00 03:22:13FILE "10 - Fur Elise.wav" WAVE INDEX 01 00:00:00 TRACK 11 AUDIO TITLE "The Christmas Song" PERFORMER "Vince Guaraldi" ISRC USFI86600070 INDEX 00 01:03:28FILE "11 - The Christmas Song.wav" WAVE INDEX 01 00:00:00 TRACK 12 AUDIO TITLE "Greensleeves" PERFORMER "Vince Guaraldi" ISRC USFI88800019 INDEX 00 03:15:15FILE "12 - Greensleeves.wav" WAVE INDEX 01 00:00:00

Отчет CUETools

[CUETools log; Date: 03.12.2017 0:11:09; Version: 2.1.5][CTDB TOCID: BzwhmhQ5CKiI6ag9TFg4NoVyOuA-] found.Track | CTDB Status 1 | (22/22) Accurately ripped 2 | (22/22) Accurately ripped 3 | (22/22) Accurately ripped 4 | (22/22) Accurately ripped 5 | (22/22) Accurately ripped 6 | (22/22) Accurately ripped 7 | (22/22) Accurately ripped 8 | (22/22) Accurately ripped 9 | (22/22) Accurately ripped 10 | (22/22) Accurately ripped 11 | (22/22) Accurately ripped 12 | (22/22) Accurately ripped[AccurateRip ID: 00128ba5-00a996c9-8209780c] found.Track [ CRC | V2 ] Status 01 [1d63579c|1bd7db6b] (08+17/47) Accurately ripped 02 [94c57282|c89ab7e9] (08+17/46) Accurately ripped 03 [cf79ba1f|69c1a71c] (08+17/46) Accurately ripped 04 [32d5b8c1|e3765b96] (08+17/47) Accurately ripped 05 [d76321bc|eb1159d4] (07+17/45) Accurately ripped 06 [cfded7a7|0776cdd6] (08+17/47) Accurately ripped 07 [171f9b75|4a466618] (08+17/47) Accurately ripped 08 [2e334652|43365eaa] (08+17/46) Accurately ripped 09 [acaa7bfb|a31bdc14] (08+18/47) Accurately ripped 10 [bcdc4793|60ebb327] (08+17/46) Accurately ripped 11 [55f8769a|a510b86b] (08+17/46) Accurately ripped 12 [44bff76c|c36c1fc1] (08+17/46) Accurately rippedOffsetted by -676: 01 [6f40ce33] (11/47) Accurately ripped 02 [2ffafa10] (11/46) Accurately ripped 03 [a11400bf] (11/46) Accurately ripped 04 [0691eab2] (11/47) Accurately ripped 05 [98eac154] (11/45) Accurately ripped 06 [17f99c80] (11/47) Accurately ripped 07 [037e9da2] (11/47) Accurately ripped 08 [54851926] (11/46) Accurately ripped 09 [3e404401] (11/47) Accurately ripped 10 [1f8a62ae] (11/46) Accurately ripped 11 [3a35b895] (11/46) Accurately ripped 12 [8f04d476] (11/46) Accurately ripped
Track Peak [ CRC32 ] [W/O NULL] [ LOG ] -- 99,0 [4E671D83] [9CE75410] 01 99,0 [98CF608D] [AB07EBEC] CRC32 02 98,4 [FE5BA18C] [19D11FCA] CRC32 03 98,6 [32CBB088] [ECBBA3D4] CRC32 04 98,9 [724BC8DF] [F368E6BB] CRC32 05 98,5 [C036ED26] [7BD9A94A] CRC32 06 98,5 [DE11E836] [CB5565B7] CRC32 07 98,0 [94AB44B3] [673EB9A8] CRC32 08 81,9 [C35BC5D7] [29B9B287] CRC32 09 95,2 [F883E3A3] [356A953C] CRC32 10 62,7 [1FB1CFEB] [29A6C0FE] CRC32 11 84,4 [3A75F73D] [313506DE] CRC32 12 98,5 [A98718DD] [7483A8F1] CRC32

AllMusic Review by Shawn M. Haney

Peanuts creator Charles M. Schulz called on pianist extraordinaire Vince Guaraldi and his trio to compose and perform music that would reflect the humor, charm, and innocence of Charlie Brown, Snoopy, and the entire Peanuts gang for their 1965 Christmas TV special. It was a perfect match: Guaraldi strings together elegant, enticing arrangements that reflect the spirit and mood of Schulz's work and introduce contemporary jazz to youngsters with grace, charm, and creativity. "What Child Is This" touches on cool jazz's richly textured percussive nuances, while "The Christmas Song" reflects Christmas' relaxing, mellow moments. The renowned "Linus and Lucy" gives the Peanuts characters a fresh, energetic feel with its tantalizing meter changes, brilliant percussion, and dashing, humorous piano lines. "Christmastime Is Here," perhaps the album's most endearing and eloquent moment, is six minutes of soft, lullaby-like melodic and percussive flavors. This collection of soul-soothing melodies would not be complete without the romantic gem "Skating," which blends musical references to falling snowflakes with the dashing feel of swing. Finally, the uplifting, emotionally stirring swing tune "Christmas Is Coming" really brings the listener into the joyous light of the Christmas spirit. Fred Marshall's alluring walking basslines and drummer Jerry Granelli's hauntingly beautiful brush work give most of the album a warm foundation, while Monty Budwig and Colin Bailey shine through with eminent dexterity on bass and drums on "Greensleeves." As for Guaraldi, his penetrating improvisational phrases paint pictures of the first winter snowfall, myriad glistening trees, and powdery white landscapes. With its blend of contemporary jazz and lyrical mannerisms, A Charlie Brown Christmas is a joyous and festive meditation for the holiday season.


[torrentc.info]_t_5488336.torrent
Торрент: Зарегистрирован ·  [ 2017-12-06 18:42 ] ·  8653724eaa687699590c03bc18b9f6b4d5b0a2e0

19 KB

Статус: проверено
Скачан: 0 раз
Размер: 227 MB
Оценка: 
(Голосов: 0)
Сказали спасибо: 0  Спасибо
Похожие темы
[Профиль]    [ЛС]
Показать сообщения:    
Ответить на тему

Текущее время: Сегодня 02:31

Часовой пояс: GMT + 7



Вы не можете начинать темы
Вы не можете отвечать на сообщения
Вы не можете редактировать свои сообщения
Вы не можете удалять свои сообщения
Вы не можете голосовать в опросах
Вы не можете прикреплять файлы к сообщениям
Вы можете скачивать файлы