(R\'n\'B) [CD] Changing Faces - Changing Faces - 1994, FLAC (tracks+.cue), lossless

Ответить на тему
Статистика раздачи [Обновить пиров]
Размер:  412 MB   |    Зарегистрирован:  9 месяцев 13 дней   |    Скачан:  0 раз

Полного источника не было: Никогда

 
   
 
 
 
Автор Сообщение

torrentc.info

Создавать темы 05-Дек-2017 20:43

[Цитировать]

Changing Faces / Changing Faces
Жанр: R'n'B
Носитель: CD
Страна-производитель диска (релиза): Canada
Год издания: 1994
Издатель (лейбл): Big Beat Records Inc.
Номер по каталогу: 92369
Аудиокодек: FLAC (*.flac)
Тип рипа: tracks+.cue
Битрейт аудио: lossless
Продолжительность: 0:59:11.
Источник (релизер): clustert
Наличие сканов в содержимом раздачи: да
Треклист:
01. Stroke You Up [0:05:52.17]
02. Foolin' Around [0:04:28.05]
03. Lovin' Ya Boy [0:04:02.35]
04. One Of Those Things [0:03:59.20]
05. Keep It Right There [0:04:00.30]
06. Am I Wasting My Time [0:04:07.73]
07. Feeling All This Love [0:03:47.57]
08. Thoughts Of You [0:05:35.28]
09. Come Closer [0:05:16.00]
10. Baby Your Love [0:04:20.45]
11. Movin' On [0:03:28.20]
12. Good Thing [0:05:33.05]
13. All Is Not Gone [0:04:40.37]

Лог создания рипа

Exact Audio Copy V1.0 beta 3 from 29. August 2011
Отчёт EAC об извлечении, выполненном 4. ноября 2017, 2:10
Changing Faces / Changing Faces
Дисковод: ASUS DRW-1814BLT Adapter: 4 ID: 0
Режим чтения : ДостоверностьИспользование точного потока : ДаОтключение кэша аудио : ДаИспользование указателей C2 : Нет
Коррекция смещения при чтении : 6Способность читать области Lead-in и Lead-out : НетЗаполнение пропущенных сэмплов тишиной : ДаУдаление блоков с тишиной в начале и конце : НетПри вычислениях CRC использовались нулевые сэмплы : ДаИнтерфейс : Встроенный Win32-интерфейс для Win NT/2000Обработка зазоров : Добавлено к предыдущему треку
Выходной формат : Пользовательский кодировщикВыбранный битрейт : 128 kBit/sКачество : ВысокийДобавление ID3-тега : НетУтилита сжатия : C:\Program Files\Exact Audio Copy\Flac\flac.exeДополнительные параметры : -V -8 -T "Genre=%genre%" -T "Artist=%artist%" -T "Title=%title%" -T "Album=%albumtitle%" -T "Date=%year%" -T "Tracknumber=%tracknr%" -T "Comment=EAC1.0b2 FLAC -8" %source%
TOC извлечённого CD
Трек | Старт | Длительность | Начальный сектор | Конечный сектор --------------------------------------------------------------------- 1 | 0:00.00 | 5:52.17 | 0 | 26416 2 | 5:52.17 | 4:28.05 | 26417 | 46521 3 | 10:20.22 | 4:02.35 | 46522 | 64706 4 | 14:22.57 | 3:59.20 | 64707 | 82651 5 | 18:22.02 | 4:00.30 | 82652 | 100681 6 | 22:22.32 | 4:07.73 | 100682 | 119279 7 | 26:30.30 | 3:47.57 | 119280 | 136361 8 | 30:18.12 | 5:35.28 | 136362 | 161514 9 | 35:53.40 | 5:16.00 | 161515 | 185214 10 | 41:09.40 | 4:20.45 | 185215 | 204759 11 | 45:30.10 | 3:28.20 | 204760 | 220379 12 | 48:58.30 | 5:33.05 | 220380 | 245359 13 | 54:31.35 | 4:40.37 | 245360 | 266396
Трек 1
Имя файла R:\Раздача 75\Changing Faces - 1994 - Changing Faces\01 Stroke You Up .wav
Длина предзазора 0:00:02.00
Пиковый уровень 98.8 % Скорость извлечения 3.6 X Качество трека 99.9 % CRC теста BA3BE1E9 CRC копии BA3BE1E9 Трек не обнаружен в базе AccurateRip Копирование... OK
Трек 2
Имя файла R:\Раздача 75\Changing Faces - 1994 - Changing Faces\02 Foolin' Around .wav
Длина предзазора 0:00:02.07
Пиковый уровень 98.8 % Скорость извлечения 5.2 X Качество трека 100.0 % CRC теста 2E118139 CRC копии 2E118139 Трек не обнаружен в базе AccurateRip Копирование... OK
Трек 3
Имя файла R:\Раздача 75\Changing Faces - 1994 - Changing Faces\03 Lovin' Ya Boy .wav
Пиковый уровень 98.8 % Скорость извлечения 5.6 X Качество трека 100.0 % CRC теста 08546C1E CRC копии 08546C1E Трек не обнаружен в базе AccurateRip Копирование... OK
Трек 4
Имя файла R:\Раздача 75\Changing Faces - 1994 - Changing Faces\04 One Of Those Things .wav
Длина предзазора 0:00:00.07
Пиковый уровень 98.8 % Скорость извлечения 6.0 X Качество трека 100.0 % CRC теста 60655AAC CRC копии 60655AAC Трек не обнаружен в базе AccurateRip Копирование... OK
Трек 5
Имя файла R:\Раздача 75\Changing Faces - 1994 - Changing Faces\05 Keep It Right There .wav
Пиковый уровень 98.8 % Скорость извлечения 6.2 X Качество трека 100.0 % CRC теста FCC5E14F CRC копии FCC5E14F Трек не обнаружен в базе AccurateRip Копирование... OK
Трек 6
Имя файла R:\Раздача 75\Changing Faces - 1994 - Changing Faces\06 Am I Wasting My Time .wav
Длина предзазора 0:00:01.30
Пиковый уровень 98.8 % Скорость извлечения 4.7 X Качество трека 99.9 % CRC теста 89BC1FA4 CRC копии 89BC1FA4 Трек не обнаружен в базе AccurateRip Копирование... OK
Трек 7
Имя файла R:\Раздача 75\Changing Faces - 1994 - Changing Faces\07 Feeling All This Love .wav
Длина предзазора 0:00:00.23
Пиковый уровень 98.8 % Скорость извлечения 4.8 X Качество трека 99.9 % CRC теста 5AB31314 CRC копии 5AB31314 Трек не обнаружен в базе AccurateRip Копирование... OK
Трек 8
Имя файла R:\Раздача 75\Changing Faces - 1994 - Changing Faces\08 Thoughts Of You .wav
Длина предзазора 0:00:00.20
Пиковый уровень 98.8 % Скорость извлечения 7.5 X Качество трека 100.0 % CRC теста 1FAA71AD CRC копии 1FAA71AD Трек не обнаружен в базе AccurateRip Копирование... OK
Трек 9
Имя файла R:\Раздача 75\Changing Faces - 1994 - Changing Faces\09 Come Closer .wav
Пиковый уровень 98.8 % Скорость извлечения 7.8 X Качество трека 100.0 % CRC теста 48BE5F7F CRC копии 48BE5F7F Трек не обнаружен в базе AccurateRip Копирование... OK
Трек 10
Имя файла R:\Раздача 75\Changing Faces - 1994 - Changing Faces\10 Baby Your Love .wav
Длина предзазора 0:00:00.68
Пиковый уровень 98.8 % Скорость извлечения 5.7 X Качество трека 99.9 % CRC теста 52C2E844 CRC копии 52C2E844 Трек не обнаружен в базе AccurateRip Копирование... OK
Трек 11
Имя файла R:\Раздача 75\Changing Faces - 1994 - Changing Faces\11 Movin' On .wav
Длина предзазора 0:00:00.30
Пиковый уровень 98.8 % Скорость извлечения 7.9 X Качество трека 100.0 % CRC теста D6A5468E CRC копии D6A5468E Трек не обнаружен в базе AccurateRip Копирование... OK
Трек 12
Имя файла R:\Раздача 75\Changing Faces - 1994 - Changing Faces\12 Good Thing .wav
Длина предзазора 0:00:00.25
Пиковый уровень 98.8 % Скорость извлечения 8.7 X Качество трека 100.0 % CRC теста C1FB560F CRC копии C1FB560F Трек не обнаружен в базе AccurateRip Копирование... OK
Трек 13
Имя файла R:\Раздача 75\Changing Faces - 1994 - Changing Faces\13 All Is Not Gone .wav
Длина предзазора 0:00:00.33
Пиковый уровень 98.8 % Скорость извлечения 8.8 X Качество трека 100.0 % CRC теста B5086FBA CRC копии B5086FBA Трек не обнаружен в базе AccurateRip Копирование... OK
Ни одного трека нет в базе AccurateRip
Ошибок не произошло
Конец отчёта
==== Контрольная сумма отчёта A3CFD14CBE4A5CBBACD829074D75F17B787560248566FD2B3520BFB631F7D00F ====

Содержание индексной карты (.CUE)

REM GENRE R&BREM DATE 1994REM DISCID 9F0DDF0DREM COMMENT "ExactAudioCopy v1.0b3"PERFORMER "Changing Faces"TITLE "Changing Faces"FILE "01 Stroke You Up .wav" WAVE TRACK 01 AUDIO TITLE "Stroke You Up" PERFORMER "Changing Faces" INDEX 01 00:00:00 TRACK 02 AUDIO TITLE "Foolin' Around" PERFORMER "Changing Faces" INDEX 00 05:50:10FILE "02 Foolin' Around .wav" WAVE INDEX 01 00:00:00FILE "03 Lovin' Ya Boy .wav" WAVE TRACK 03 AUDIO TITLE "Lovin' Ya Boy" PERFORMER "Changing Faces" INDEX 01 00:00:00 TRACK 04 AUDIO TITLE "One Of Those Things" PERFORMER "Changing Faces" INDEX 00 04:02:28FILE "04 One Of Those Things .wav" WAVE INDEX 01 00:00:00FILE "05 Keep It Right There .wav" WAVE TRACK 05 AUDIO TITLE "Keep It Right There" PERFORMER "Changing Faces" INDEX 01 00:00:00 TRACK 06 AUDIO TITLE "Am I Wasting My Time" PERFORMER "Changing Faces" INDEX 00 03:59:00FILE "06 Am I Wasting My Time .wav" WAVE INDEX 01 00:00:00 TRACK 07 AUDIO TITLE "Feeling All This Love" PERFORMER "Changing Faces" INDEX 00 04:07:50FILE "07 Feeling All This Love .wav" WAVE INDEX 01 00:00:00 TRACK 08 AUDIO TITLE "Thoughts Of You" PERFORMER "Changing Faces" INDEX 00 03:47:37FILE "08 Thoughts Of You .wav" WAVE INDEX 01 00:00:00FILE "09 Come Closer .wav" WAVE TRACK 09 AUDIO TITLE "Come Closer" PERFORMER "Changing Faces" INDEX 01 00:00:00 TRACK 10 AUDIO TITLE "Baby Your Love" PERFORMER "Changing Faces" INDEX 00 05:15:07FILE "10 Baby Your Love .wav" WAVE INDEX 01 00:00:00 TRACK 11 AUDIO TITLE "Movin' On" PERFORMER "Changing Faces" INDEX 00 04:20:15FILE "11 Movin' On .wav" WAVE INDEX 01 00:00:00 TRACK 12 AUDIO TITLE "Good Thing" PERFORMER "Changing Faces" INDEX 00 03:27:70FILE "12 Good Thing .wav" WAVE INDEX 01 00:00:00 TRACK 13 AUDIO TITLE "All Is Not Gone" PERFORMER "Changing Faces" INDEX 00 05:32:47FILE "13 All Is Not Gone .wav" WAVE INDEX 01 00:00:00


[torrentc.info]_t_5482292.torrent
Торрент: Зарегистрирован ·  [ 2017-12-05 20:42 ] ·  6a95850c0cb0412d153884ccda7e0cb2507ec8fa

18 KB

Статус: проверено
Скачан: 0 раз
Размер: 412 MB
Оценка: 
(Голосов: 0)
Сказали спасибо: 0  Спасибо
Похожие темы
[Профиль]    [ЛС]
Показать сообщения:    
Ответить на тему

Текущее время: Сегодня 20:05

Часовой пояс: GMT + 7



Вы не можете начинать темы
Вы не можете отвечать на сообщения
Вы не можете редактировать свои сообщения
Вы не можете удалять свои сообщения
Вы не можете голосовать в опросах
Вы не можете прикреплять файлы к сообщениям
Вы можете скачивать файлы